Колесо Времени / Wheel of Time / Rad der Zeit (Вернер Херцог / Werner Herzog) [2003 г., Документальный, DVB]


Статистика раздачи [Обновить пиров]
Размер:  3.83 GB   |    Зарегистрирован:  1 год 1 месяц   |    Скачан:  0 раз

Полного источника не было: Никогда

 
   
 
 
 

[Цитировать]

КОЛЕСО ВРЕМЕНИ
/ WHEEL OF TIME / RAD DER ZEIT

Год выпуска: 2003
Страна: Германия
Жанр: Документальный
Продолжительность: 01:20:02
Перевод: профессиональный (одноголосый закадровый)
Субтитры: нет
Режиссер: Вернер Херцог-Описание:
Название этого фильма - название ритуала, помогающего раскрыть внутренний потенциал человека. Царство ума практически невозможно воссоздать на пленке, однако режиссеру это удалось - он создал лирическую и вместе с тем мистическую видео-поэму. Показана вереница паломников, ждущих церемонии, и монахов, участвующих в ритуале. Его Святейшество Далай-лама XIV дает интервью режиссеру и проводит ритуалы. Камера пробираясь сквозь толпы паломников запечатлевает море лиц и моменты ритуала. Вот церемония закончена и высыпанный песок символизирует непостоянство всего сущего.-Дополнительная информация:
Озвучивание: Наталья Иноземцева
Перевод: Фонд "Сохраним Тибет"
Ремуксинг: Буддийская Дхарма-Качество: DVB
Формат: MPEG-TS
Видео: MPEG2, 720x576, 16:9, 6289 kbps Variable, 25.000 fps, Top Field First
Аудио: Russian, AC3, 224 kbps, 48 kHz, 2 ch

Сэмпл

Скачать ролик 1 мин (40 МБ)

MediaInfo

General
ID : 1 (0x1)
Format : MPEG-TS
File size : 3.83 GiB
Duration : 1h 20mn
Overall bit rate mode : Variable
Overall bit rate : 6 854 Kbps
Maximum Overall bit rate : 35.5 Mbps
Video
ID : 4113 (0x1011)
Menu ID : 1 (0x1)
Format : MPEG Video
Format version : Version 2
Format profile : Main@Main
Format settings, BVOP : Yes
Format settings, Matrix : Custom
Format settings, GOP : Variable
Codec ID : 2
Duration : 1h 20mn
Bit rate mode : Variable
Bit rate : 6 289 Kbps
Maximum bit rate : 9 200 Kbps
Width : 720 pixels
Height : 576 pixels
Display aspect ratio : 2.40:1
Frame rate : 25.000 fps
Standard : PAL
Color space : YUV
Chroma subsampling : 4:2:0
Bit depth : 8 bits
Scan type : Interlaced
Scan order : Top Field First
Compression mode : Lossy
Bits/(Pixel*Frame) : 0.607
Stream size : 3.52 GiB (92%)
Audio
ID : 4352 (0x1100)
Menu ID : 1 (0x1)
Format : AC-3
Format/Info : Audio Coding 3
Mode extension : CM (complete main)
Format settings, Endianness : Big
Codec ID : 129
Duration : 1h 20mn
Bit rate mode : Constant
Bit rate : 224 Kbps
Channel(s) : 2 channels
Channel positions : Front: L R
Sampling rate : 48.0 KHz
Bit depth : 16 bits
Compression mode : Lossy
Stream size : 128 MiB (3%)
Language : Russian
[teatrix.ru].t4545.torrent 
Торрент: Зарегистрирован [ 2015-10-08 00:27 ] · C81A0C9CEFEC7C6BFFDF0B8C421954D063180721

Скачать .torrent

Скачать

20 KB

Статус: проверено
Скачан: 0 раз
Размер: 3.83 GB
terms.php



Быстрый ответ

Имя:

      
Для отправки сообщений необходимо включить JavaScript
Показать сообщения:    

Текущее время: 06-Дек 19:03

Часовой пояс: UTC + 3


Вы можете начинать темы
Вы можете отвечать на сообщения
Вы не можете редактировать свои сообщения
Вы не можете удалять свои сообщения
Вы не можете голосовать в опросах
Вы не можете прикреплять файлы к сообщениям
Вы можете скачивать файлы