Дневники крестьян / Pamietniki Chlopow / Peasant Diaries (Анджей Мунк / Andrzej Munk) [1952, Польша, короткий метр, DVDRip, sub]


Статистика раздачи [Обновить пиров]
Размер:  179 MB   |    Зарегистрирован:  1 год 2 месяца   |    Скачан:  0 раз

Полного источника не было: Никогда

 
   
 
 
 

[Цитировать]

Дневники крестьян / Pamietniki Chlopow / Peasant Diaries
Страна: Польша
Жанр: короткий метр
Год выпуска: 1952
Продолжительность: 00:12:46
Перевод: Субтитры (JacobSSoN)
Режиссер: Анджей Мунк / Andrzej Munk
В ролях: Анджей Лапицкий (читает текст)
Описание: Второй короткометражный фильм Мунка, повествующий о нелёгкой судьбе польских крестьян.
Качество видео: DVDRip
Формат видео: AVI
Видео: 640x464 (1.38:1), 25 fps, XviD build 46 ~1837 kbps avg, 0.25 bit/pixel
Аудио: 44.100 kHz, MPEG Layer 3, 2 ch, ~104.91 kbps avg

MediaInfo

General
Complete name : D:\Video\cinema\Andrzej Munk\Pamietniki Chlopow\Andrzej Munk - Pamietniki Chlopow AKA Peasant Diaries.avi
Format : AVI
Format/Info : Audio Video Interleave
File size : 179 MiB
Duration : 12mn 46s
Overall bit rate mode : Variable
Overall bit rate : 1 955 Kbps
Writing application : VirtualDubMod 1.5.10.2 (build 2540/release)
Writing library : VirtualDubMod build 2540/release
Video
ID : 0
Format : MPEG-4 Visual
Format profile : Advanced Simple@L5
Format settings, BVOP : 1
Format settings, QPel : No
Format settings, GMC : No warppoints
Format settings, Matrix : Default (MPEG)
Codec ID : XVID
Codec ID/Hint : XviD
Duration : 12mn 46s
Bit rate : 1 837 Kbps
Width : 640 pixels
Height : 464 pixels
Display aspect ratio : 1.379
Frame rate : 25.000 fps
Color space : YUV
Chroma subsampling : 4:2:0
Bit depth : 8 bits
Scan type : Progressive
Compression mode : Lossy
Bits/(Pixel*Frame) : 0.248
Stream size : 168 MiB (94%)
Writing library : XviD 1.1.2 (UTC 2006-11-01)
Audio
ID : 1
Format : MPEG Audio
Format version : Version 1
Format profile : Layer 3
Mode : Joint stereo
Mode extension : MS Stereo
Codec ID : 55
Codec ID/Hint : MP3
Duration : 12mn 46s
Bit rate mode : Variable
Bit rate : 105 Kbps
Nominal bit rate : 112 Kbps
Channel(s) : 2 channels
Sampling rate : 44.1 KHz
Compression mode : Lossy
Stream size : 9.58 MiB (5%)
Alignment : Aligned on interleaves
Interleave, duration : 26 ms (0.65 video frame)
Interleave, preload duration : 552 ms
Writing library : LAME3.90.
Encoding settings : -m j -V 4 -q 2 -lowpass 16 --abr 112

Пример субтитров

1
00:00:34,676 --> 00:00:37,952
Лето 1952 года.
Восьмое лето Польской Народной Республики.
2
00:00:38,237 --> 00:00:40,387
Крестьяне, хозяева земли
3
00:00:40,556 --> 00:00:42,865
и её законные владельцы,
собирают урожай.
4
00:00:43,036 --> 00:00:46,233
Но не всегда она кормила тех,
кто на ней работал.
5
00:00:46,477 --> 00:00:51,392
В такой погожий летний день мы легко
забываем мрачное прошлое.
6
00:00:51,558 --> 00:00:54,231
Те дни нищеты, экспулатации и безработицы.
7
00:00:54,438 --> 00:00:56,668
Давайте пройдёмся по тропинкам прошлого.
8
00:01:03,639 --> 00:01:07,757
Это дневники крестьян,
опубликованные в 1935,
9
00:01:08,160 --> 00:01:11,232
описание их жизни в Польше
на пороге войны.
10
00:01:11,399 --> 00:01:13,629
Польше капиталистов и собственников.
11
00:01:15,281 --> 00:01:16,919
От рассвета до заката мы ощущаем
12
00:01:17,080 --> 00:01:19,913
угрозу всеохватывающей нищеты,
13
00:01:20,080 --> 00:01:21,832
и даже смерти от голода,
14
00:01:22,520 --> 00:01:25,717
на земле, что взрастила нас,
15
00:01:26,642 --> 00:01:29,315
но отказала в жизни.
16
00:01:29,761 --> 00:01:34,881
Мне рвёт сердце то, что
мы голодаем, видя столько хлеба.
17
00:01:35,362 --> 00:01:38,877
Молодые крестьяне не помнят тех дней,
18
00:01:39,043 --> 00:01:42,035
но спросите старших. Они помнят.
19
00:01:44,723 --> 00:01:48,841
У ребёнка ноги гнутся от
недостатка еды.
[teatrix.ru].t4546.torrent 
Торрент: Зарегистрирован [ 2015-10-08 00:27 ] · 1A9AD25471D22161F5353E151B2840C56CE96CFD

Скачать .torrent

Скачать

15 KB

Статус: проверено
Скачан: 0 раз
Размер: 179 MB
terms.php



Быстрый ответ

Имя:

      
Для отправки сообщений необходимо включить JavaScript
Показать сообщения:    

Текущее время: 10-Дек 17:45

Часовой пояс: UTC + 3


Вы можете начинать темы
Вы можете отвечать на сообщения
Вы не можете редактировать свои сообщения
Вы не можете удалять свои сообщения
Вы не можете голосовать в опросах
Вы не можете прикреплять файлы к сообщениям
Вы можете скачивать файлы