Безумный мир Дэвида Лашапеля / Eye Candy. The Crazy World of David LaChapelle (Хильке Зиннинг / Hilka Sinning) [2006, Германия, документальный, поп-арт, сюрреалистический гламур, DVB] DVO (Селена Интернейшнл)


Статистика раздачи [Обновить пиров]
Размер:  1.03 GB   |    Зарегистрирован:  1 год 2 месяца   |    Скачан:  1 раз

Полного источника не было: 6 дней

 
   
 
 
 

[Цитировать]

Безумный мир Дэвида Лашапеля
Eye Candy. The Crazy World of David LaChapelle
Zucker fürs Auge - Die verrückte Welt des David LaChapelle
David LaChapelle - Du Pop Art à la Provocation
- Страна: Германия
Жанр: документальный, поп-арт, сюрреалистический гламур
Год выпуска: 2006
Продолжительность: 00:55:11
Перевод: Профессиональный (двухголосый закадровый) (кинокомпания "Селена Интернейшнл")
Cубтитры: нет
Оригинальная аудиодорожка: нет
Режиссер: Хильке Зиннинг / Hilka Sinning
В ролях: Дэвид Лашапель / David LaChapelle, Аманда Лепор / Amanda Lepore
Описание: Вступительное слово основателя и директора Московского дома фотографии Ольги Свибловой.
Вдохновленный великим Энди Уорхолом, эксцентричный фотограф Дэвид ЛаШапель создал свой безумный сюрреалистичный мир. Безудержное воображение и эротизм образов сделали ЛаШапеля одним из самых известных фотографов современности. Знаменитости выстраиваются в очередь, чтобы он увековечил их в своих работах. В Нью-Йорке перекрывают дороги, когда в его галереи начинается новая выставка, а в Италии его называют "Феллини фотографии". (анонс канала "24ДОК")
Доп. информация: Собственная запись со спутника (канал "24ДОК").
Информация: http://www.imdb.com/title/tt0880659/
Сэмпл: http://multi-up.com/812129
Качество видео: DVB
Формат видео: MPEG-PS
Видео: MPEG Video 2, 720x576@768x576 (4:3), 25 fps, ~2427 kbps avg, 0.234 bit/pixel
Аудио: 48 kHz, MPEG Audio 2, 2 ch, ~192.00 kbps avg

MediaInfo

Полное имя : H:\My Torrents\[apreder]Eye_Candy_The_Crazy_World_of_David_LaChapelle(2006)DVB.mpgФормат : MPEG-PSРазмер файла : 1,03 ГбайтПродолжительность : 55 м.Режим общего битрейта : ПеременныйОбщий поток : 2673 Кбит/сек
ВидеоИдентификатор : 224 (0xE0)Формат : MPEG VideoВерсия формата : Version 2Профиль формата : Main@MainПараметр BVOP формата : ДаПараметр матрицы формата : ВыборочнаяПараметр GOP формата : M=3, N=24Продолжительность : 55 м.Вид битрейта : ПеременныйБитрейт : 2427 Кбит/секШирина : 720 пикселейВысота : 576 пикселейСоотношение сторон : 4:3Частота кадров : 25,000 кадров/секСтандарт вещания : PALЦветовое пространство : YUVСубдискретизация насыщенности : 4:2:0Битовая глубина : 8 битТип развёртки : ЧересстрочнаяПорядок развёртки : Верхнее поле первоеМетод сжатия : С потерямиБит/(Пиксели*Кадры) : 0.234Размер потока : 958 Мбайт (91%)
АудиоИдентификатор : 192 (0xC0)Формат : MPEG AudioВерсия формата : Version 1Профиль формата : Layer 2Продолжительность : 55 м.Вид битрейта : ПостоянныйБитрейт : 192 Кбит/секКаналы : 2 каналаЧастота : 48,0 КГцМетод сжатия : С потерямиРазмер потока : 75,8 Мбайт (7%)

Скриншот c названием фильма

Скриншоты анаморфированные



-549/531√
[teatrix.ru].t4550.torrent 
Торрент: Зарегистрирован [ 2015-10-08 00:27 ] · D817FD3F6DE7A3B7A5A78E943F6B9CCE6827C69B

Скачать .torrent

Скачать

11 KB

Статус: проверено
Скачан: 1 раз
Размер: 1.03 GB
terms.php



Быстрый ответ

Имя:

      
Для отправки сообщений необходимо включить JavaScript
Показать сообщения:    

Текущее время: 09-Дек 10:49

Часовой пояс: UTC + 3


Вы можете начинать темы
Вы можете отвечать на сообщения
Вы не можете редактировать свои сообщения
Вы не можете удалять свои сообщения
Вы не можете голосовать в опросах
Вы не можете прикреплять файлы к сообщениям
Вы можете скачивать файлы