Трилогия Кацци: Коянискацци, Поваккацци, Накойкацци / Qatsi trilogy: Koyaanisqatsi, Powaqqatsi, Naqoyqatsi (Годфри Реджио / Godfrey Reggio) [1982-1988-2002, Документальный, BDRemux 1080p] Criterion Collection+Бонус(Anima Mundi в FullHD)


Статистика раздачи [Обновить пиров]
Размер:  80.01 GB   |    Зарегистрирован:  1 год 2 месяца   |    Скачан:  0 раз

Полного источника не было: Никогда

 
   
 
 
 

[Цитировать]

Трилогия Кацци: Коянискацци, Поваккацци, Накойкацци.Qatsi trilogy: Koyaanisqatsi, Powaqqatsi, Naqoyqatsi.-- Criterion Collection-
-
- Год выпуска: 2012
Страна: США
Студия: Criterion Collection
Жанр: Документальный
Продолжительность: 01:28:13+ 01:39:53+01:29:58
Перевод: Не требуется
Русские субтитры: нет
Режиссер: Годфри Реджио / Godfrey Reggio
Композитор: Филип Гласс
Тип релиза: BDRemux 1080p
Контейнер: MKV
Видео: MPEG-4 AVC 1920x1080p(16:9), 23,976 fps
Аудио: Music DTS-HD MA 5.1
-Оригинал взят с - Criterion Collection-

Коянискацци / Koyaanisqatsi

Коянискацци / Koyaanisqatsi-«Until now, you've never really seen the world you live in.»-- Название: Кояанискатси
Оригинальное название: Koyaanisqatsi: Life Out of Balance
Год выпуска: 1982
Выпущено: Santa Fe Institute for Regional Education
Продолжительность:01:28:13
В ролях: Тед Коппел
Описание:
«Koyaanisqatsi» — с языка индейцев племени хопи — это безумная жизнь, беспорядочная жизнь, жизнь на грани распада, жизнь вне баланса, жизнь, требующая изменений во имя продолжения жизни…
"Коянискацци" (Koyaanisqatsi; Жизнь, выведенная из равновесия) - документальный фильм Годфри Реджио с музыкой композитора-минималиста Филипа Гласса и киносъёмками Рона Фрика. Лента содержит большое количество фрагментов, снятых по технологии замедленной киносъёмки. Фильм полностью лишён дикторского текста и актёрской речи, однако его музыкальное оформление, на которое опирается сюжет, занимает в повествовании такое же значение, как и видеоряд, и, фактически, создаёт атмосферу фильма. Это первый из трилогии фильмов "Кацци", показывающей с различных сторон взаимодействие человека и технологии. Другие две ленты трилогии: "Поваккацци" и "Накойкацци". Более десятилетия из-за лицензионных ограничений фильм "Коянискацци" не издавался, так как Филип Гласс и его ансамбль гастролировали с ним, вживую исполняя музыку прямо перед киноэкраном во время показов.
-Качество: BDRemux1080p
Формат: MKV
Видео кодек: H.264
Аудио кодек: DTS
Видео: MPEG-4 AVC 1920x1080p(16:9), 36.2 Mbps , 23,976 fps, High Profile 4.1, 0.729 Bits/Pixel
Аудио: English,DTS-HD Master Audio,5.1 / 48 kHz / 3923 kbps / 24-bit (DTS Core: 5.1 / 48 kHz / 1509 kbps / 24-bit) {Instrumental}- - Criterion Collection-

Знаете ли вы, что...

• Фильм «Кояанискатси» создавался 6 лет. 3 года ушло на съемки. Остальные три года были потрачены Годфри Реджио и Филипом Глассом на написание музыки к фильму, на монтаж и на подгонку их друг к другу.
• Годфри Реджио изначально хотел пригласить Филипа Гласса в качестве композитора фильма. Он вышел на Гласса через общих знакомых, но композитор заявил: «Я не пишу музыку для фильмов». Однако после долгих уговоров и специального закрытого показа пробного монтажа фильма с использованием музыки Гласса, тот в конце концов согласился написать саундтрек к фильму. Это вылилось в первый коммерческий успех композитора, который в последствии написал музыку для всех последующих фильмов трилогии «Катси».
• Изначально Реджио хотел вставить в титры аутентичный символ, плохо поддающийся трактовке, но потом решил, что никто не поймет и не оценит.
• Филип Гласс условно разделил фильм на 12 примерно равных частей и написал для каждой индивидуальную музыкальную тему. Когда Реджио увидел и услышал конечный результат, он пришел в ужас от подобного прагматизма и заново перемонтировал фильм, чтобы картинка соответствовала звуку.
• Поначалу права на фильм принадлежали кинокомпании Фрэнсиса Форда Копполы «American Zoetrope». Когда компания обанкротилась, права перешли компании «PolyGram». Но и «Полиграм» недолго просуществовала. Сейчас права принадлежат корпорации «MGM».
• В фильм есть одна сцена, изображающая горную цепь. Она была отдана режиссеру кинокомпанией MacGillivray-Freeman Films. Это сцена, оставшаяся после съемок «Сияния» (1980).

MEDIAINFO

General
Unique ID : 236821660861699474249704085572079266620 (0xB22A315C367DF37081F0B2A2D6C72B3C)
Complete name : 1.Koyaanisqatsi.1982.BDRemux1080p.mkv
Format : Matroska
Format version : Version 2
File size : 23.8 GiB
Duration : 1h 28mn
Overall bit rate mode : Variable
Overall bit rate : 38.6 Mbps
Encoded date : UTC 2013-01-01 20:32:41
Writing application : mkvmerge v5.6.0 ('Kenya Kane') built on May 27 2012 16:44:04
Writing library : libebml v1.2.3 + libmatroska v1.3.0
Video #1
ID : 1
Format : AVC
Format/Info : Advanced Video Codec
Format profile : High@L4.1
Format settings, CABAC : Yes
Format settings, ReFrames : 4 frames
Muxing mode : Container profile=Unknown@0.0
Codec ID : V_MPEG4/ISO/AVC
Duration : 1h 28mn
Bit rate mode : Variable
Bit rate : 36.2 Mbps
Maximum bit rate : 37.0 Mbps
Width : 1 920 pixels
Height : 1 080 pixels
Display aspect ratio : 16:9
Frame rate : 23.976 fps
Color space : YUV
Chroma subsampling : 4:2:0
Bit depth : 8 bits
Scan type : Progressive
Bits/(Pixel*Frame) : 0.729
Stream size : 22.3 GiB (94%)
Default : No
Forced : No
Audio #2
ID : 2
Format : DTS
Format/Info : Digital Theater Systems
Format profile : MA / Core
Codec ID : A_DTS
Duration : 1h 28mn
Bit rate mode : Variable
Bit rate : 1 561 Kbps / 1 510 Kbps
Channel(s) : 6 channels
Channel positions : Front: L C R, Side: L R, LFE
Sampling rate : 48.0 KHz
Bit depth : 24 bits
Compression mode : Lossless / Lossy
Language : English
Default : Yes
Forced : No
Menu
00:00:00.000 : en:00:00:00.000
00:04:00.532 : en:00:04:00.532
00:11:33.234 : en:00:11:33.234
00:16:41.209 : en:00:16:41.209
00:23:17.479 : en:00:23:17.479
00:31:21.463 : en:00:31:21.463
00:39:49.470 : en:00:39:49.470
00:41:06.839 : en:00:41:06.839
00:44:26.622 : en:00:44:26.622
00:48:03.047 : en:00:48:03.047
01:06:05.044 : en:01:06:05.044
01:08:07.917 : en:01:08:07.917
01:20:46.425 : en:01:20:46.425

Поваккацци / Powaqqatsi

Поваккацци / Powaqqatsi-«Life in Transformation»-- Название: Поваккатси
Оригинальное название: Powwaqatsi: Life in Transformation
Год выпуска: 1988
Выпущено: Santa Fe Institute for Regional Education
Продолжительность:01:39:53
В ролях: Кристи Бринкли, Дэвид Бринкли, Папа Иоанн Павел II, Дэн Рэйтер, Шерил Тигс
Описание:
"Поваккацци" (Powaqqatsi, Трансформация жизни) - вторая часть документальной кинотрилогии "Кацци" американского режиссёра Годфри Реджио. Powaqqatsi на языке индейцев Хопи значит "паразитический образ жизни", "развитие жизни". В то время как первый фильм "Коянискацци" концентрируется на современной жизни развитых стран, в "Поваккацци" повествование фокусируется на конфликте традиционного уклада жизни стран Третьего мира с новым индустриальным путём развития.Картину представляли публике Джордж Лукас и Фрэнсис Форд Коппола. Для съемок режиссер отправился путешествовать по миру, на родину развивающихся наций, которых редко увидишь на экране в любом формате. В течение шести месяцев он со своей съемочной группой побывал в 12 странах, включая Индию, Египет, Бразилию, Перу, Кению, Непал и Нигерию.
Красивое и возвышенное определение «колдовство жизни» тем более ценно и не оставляет сомнений в своей истинности, поскольку оно рождается фактически на наших глазах из вроде бы простого наблюдения за явно скудным с материальной точки зрения и даже нищим бытием малоразвитых стран далеко от современных мегаполисов. Однако это пребывание на краю света наполнено удивительным многообразием красок и таит в себе подлинные богатства неиспользованной энергии.И то, что принято называть сырьевыми ресурсами или запасами природы, в полной мере может быть отнесено и к многочисленному человеческому сообществу, пока остающемуся в унизительном положении если не рабов, то весьма дешёвой рабочей силы, которую нещадно эксплуатирует считающая себя исключительно прогрессивной «западная система» существования на Земле.
-Качество: BDRemux1080p
Формат: MKV
Видео кодек: H.264
Аудио кодек: DTS
Видео: MPEG-4 AVC 1920x1080p(16:9), 37.0 Mbps , 23,976 fps, High Profile 4.1, 0.744 Bits/Pixel
Аудио: English,DTS-HD Master Audio,5.1 / 48 kHz / 4490 kbps / 24-bit (DTS Core: 5.1 / 48 kHz / 1509 kbps / 24-bit) {Instrumental}- - Criterion Collection-

Знаете ли вы, что...

Хотя в американском прокате этот фильм имел подзаголовок «Жизнь в изменении», на самом-то деле, «Поваккатси» на языке индейцев хопи означает нечто иное, что можно перевести примерно как «Колдовство жизни». Спустя пять лет после того, как произвела оглушительный эффект дебютная лента «Кояанискатси», режиссёр Годфри Реджо выпустил при финансовом содействии продюсеров Менахема Голана и Йорама Глобуса из компании «Кэннон», а также при поддержке Фрэнсиса Форда Копполы и Джорджа Лукаса вторую часть задуманной им документальной философско-поэтической трилогии о человеческой цивилизации. И в отличие от «жизни, потерявшей равновесие», на сей раз был представлен на экране не то чтобы умиротворённый взгляд на окружающую действительность, но более соответствующий природному витальному началу так называемого «третьего мира». Ведь он ещё сохранил связь с естественной и непосредственной средой обитания людей, которые словно продолжают существовать в одном тесном союзе с «первобытной реальностью» вокруг себя..

MEDIAINFO

General
Unique ID : 239490290747412613217750416345402956137 (0xB42C26F8CF737622863141604247D969)
Complete name : 2.Powaqqatsi.1988.BDRemux1080p.mkv
Format : Matroska
Format version : Version 2
File size : 27.4 GiB
Duration : 1h 39mn
Overall bit rate mode : Variable
Overall bit rate : 39.3 Mbps
Encoded date : UTC 2013-01-01 17:23:08
Writing application : mkvmerge v5.6.0 ('Kenya Kane') built on May 27 2012 16:44:04
Writing library : libebml v1.2.3 + libmatroska v1.3.0
Video #1
ID : 1
Format : AVC
Format/Info : Advanced Video Codec
Format profile : High@L4.1
Format settings, CABAC : Yes
Format settings, ReFrames : 4 frames
Muxing mode : Container profile=Unknown@0.0
Codec ID : V_MPEG4/ISO/AVC
Duration : 1h 39mn
Bit rate mode : Variable
Bit rate : 37.0 Mbps
Width : 1 920 pixels
Height : 1 080 pixels
Display aspect ratio : 16:9
Frame rate : 23.976 fps
Color space : YUV
Chroma subsampling : 4:2:0
Bit depth : 8 bits
Scan type : Progressive
Bits/(Pixel*Frame) : 0.744
Stream size : 25.8 GiB (94%)
Default : No
Forced : No
Audio #2
ID : 2
Format : DTS
Format/Info : Digital Theater Systems
Format profile : MA / Core
Codec ID : A_DTS
Duration : 1h 39mn
Bit rate mode : Variable
Bit rate : 1 561 Kbps / 1 510 Kbps
Channel(s) : 6 channels
Channel positions : Front: L C R, Side: L R, LFE
Sampling rate : 48.0 KHz
Bit depth : 24 bits
Compression mode : Lossless / Lossy
Language : English
Default : Yes
Forced : No
Menu
00:00:00.000 : en:00:00:00.000
00:07:50.095 : en:00:07:50.095
00:16:46.005 : en:00:16:46.005
00:23:54.600 : en:00:23:54.600
00:31:27.886 : en:00:31:27.886
00:37:36.880 : en:00:37:36.880
00:45:48.371 : en:00:45:48.371
00:48:52.263 : en:00:48:52.263
00:51:07.982 : en:00:51:07.982
00:55:16.146 : en:00:55:16.146
00:59:27.355 : en:00:59:27.355
01:04:07.927 : en:01:04:07.927
01:14:56.867 : en:01:14:56.867
01:23:28.128 : en:01:23:28.128
01:32:48.271 : en:01:32:48.271

Накойкацци / Naqoyqatsi

Накойкацци / Naqoyqatsi-«America is test-driving the future.»-- Название: Накойкаци
Оригинальное название: Naqoyqatsi: Life as War
Год выпуска: 2002
Выпущено: Miramax Films
Продолжительность:01:29:58
В ролях: Марлон Брандо, Белла Донна, Элтон Джон, Джулия Луис-Дрейфус, Мадонна, Бхагван Мирчадани, Jack Shamblin, Стивен Содерберг, Трой Айкман, The Beatles
Описание:
Название фильма переводится с языка хопи «война, как образ жизни». Необычность этого языка в том, что он, в частности, не различает категорий времени и множественного числа. (ХОПИ - индейский народ общей численностью 6 тыс. чел, проживающий на территории США.)
В последней части трилогии – "Накойкаци", название которой означает "жизнь как война" – представляемой Стивеном Содербергом, Годфри Реджио исследует новую визуальную территорию, оказываясь среди образов продвинутых технологий и цифровой обработки, которые он называет "возрожденными образами". В отличие от предыдущих фильмов, в картине "Накойкаци" мало натурных съемок, вместо этого используется метод, названный режиссером "образ как место действия".
-Качество: BDRemux1080p
Формат: MKV
Видео кодек: H.264
Аудио кодек: DTS
Видео: MPEG-4 AVC 1920x1080p(16:9), 37.0 Mbps , 23,976 fps, High Profile 4.1, 0.726 Bits/Pixel
Аудио: English,DTS-HD Master Audio,5.1 / 48 kHz / 3877 kbps / 24-bit (DTS Core: 5.1 / 48 kHz / 1509 kbps / 24-bit) {Instrumental}- - Criterion Collection-

Знаете ли вы, что...

Даже в тех редких неглупых современных кинопроизведениях, которые, как, допустим, «Матрица», выдаются за «кинематограф будущего», проявляется подмеченная выдающимся американским документалистом-философом Годфри Реджо довольно опасная подспудная идеология «технофашизма». Так называемая «подлинная реальность» (ведь слово virtual буквально означает «фактический», «действительный»), повсеместно возникающая на различных экранах — от залов кинотеатров до компьютерных мониторов, оказывается чуть ли не полной заменой истинного человеческого бытия. Мы начинаем жить в некоем эмблематическом мире, где имеем дело исключительно с символами, значками и иконками, воспринимаем действительность не напрямую, а отражённой в сложной системе деформированных зеркал. И поневоле ощущаем себя такими же пиктограммами, нарисованными образами, похищенными с помощью компьютеров идентичностями, которые размножены на бесчисленное количество смоделированных изображений-клонов...

MEDIAINFO

General
Unique ID : 196263958864896195804399142417762606436 (0x93A7104409EB0FB78581E3405377DD64)
Complete name : 3.Naqoyqatsi.2002.BDRemux1080p.mkv
Format : Matroska
Format version : Version 2
File size : 24.2 GiB
Duration : 1h 29mn
Overall bit rate mode : Variable
Overall bit rate : 38.4 Mbps
Encoded date : UTC 2013-01-01 17:09:18
Writing application : mkvmerge v5.6.0 ('Kenya Kane') built on May 27 2012 16:44:04
Writing library : libebml v1.2.3 + libmatroska v1.3.0
Video #1
ID : 1
Format : AVC
Format/Info : Advanced Video Codec
Format profile : High@L4.1
Format settings, CABAC : Yes
Format settings, ReFrames : 4 frames
Format settings, GOP : M=3, N=12
Muxing mode : Container profile=Unknown@0.0
Codec ID : V_MPEG4/ISO/AVC
Duration : 1h 29mn
Bit rate mode : Variable
Bit rate : 36.1 Mbps
Maximum bit rate : 37.0 Mbps
Width : 1 920 pixels
Height : 1 080 pixels
Display aspect ratio : 16:9
Frame rate : 23.976 fps
Color space : YUV
Chroma subsampling : 4:2:0
Bit depth : 8 bits
Scan type : Progressive
Bits/(Pixel*Frame) : 0.726
Stream size : 22.7 GiB (94%)
Default : No
Forced : No
Audio #2
ID : 2
Format : DTS
Format/Info : Digital Theater Systems
Format profile : MA / Core
Codec ID : A_DTS
Duration : 1h 29mn
Bit rate mode : Variable
Bit rate : 1 561 Kbps / 1 510 Kbps
Channel(s) : 6 channels
Channel positions : Front: L C R, Side: L R, LFE
Sampling rate : 48.0 KHz
Bit depth : 24 bits
Compression mode : Lossless / Lossy
Language : English
Default : Yes
Forced : No
Menu
00:00:00.000 : en:00:00:00.000
00:09:08.173 : en:00:09:08.173
00:17:27.713 : en:00:17:27.713
00:31:49.366 : en:00:31:49.366
00:34:56.720 : en:00:34:56.720
00:43:56.425 : en:00:43:56.425
00:54:08.328 : en:00:54:08.328
00:56:29.720 : en:00:56:29.720
01:04:41.211 : en:01:04:41.211
01:17:23.556 : en:01:17:23.556
01:22:46.295 : en:01:22:46.295
В качестве бонуса на диске "Душа Мира / Anima Mundi".

Душа Мира / Anima Mundi

Душа Мира / Anima Mundi Год выпуска: 1991
Страна: Италия,США
Жанр: Документальный, короткометражный
Продолжительность: 00:29:03
Перевод : Не требуются
Режиссер: Годфри Реджио / Godfrey Reggio
Композитор: Филип Гласс / Philip Glass
Описание:
Этот фильм прославляет загадочный и прекрасный мир природы при помощи удивительного сочетания цвета и музыки. Живописные картины летящих птиц и зебр, мчащихся галопом, горделивые страусы и суетящиеся насекомые, клетки, размножающиеся миллионами, напряжённые крупные планы диких животных и ландшафты, полные величия и спокойствия. Единый и гармоничный мир, находящийся в непрерывном движении, вдруг замирает в немом ожидании перед человеком.Красочный видовой фильм о животных — версия зарождения животного мира на Земле, который будет интересен и взрослым, и детям. Фильм без текста на музыку лучших классических произведений.-Качество: BDRemux1080p
Формат: MKV
Видео кодек: H.264
Аудио кодек: DTS
Видео: MPEG-4 AVC 1920x1080p(16:9), 22.4 Mbps , 23,976 fps, High Profile 4.1, 0.451 Bits/Pixel
Аудио: English,AC3, 192kbps, 48kHz, 16bits, 2.0ch {Instrumental}- - Criterion Collection-

MEDIAINFO

General
Unique ID : 180960614742567431894533188685725063438 (0x8823BF25AEC960F7BCBF4B3AC87E590E)
Complete name : 4.Anima Mundi.1991.BDRemux1080p.mkv
Format : Matroska
Format version : Version 2
File size : 4.69 GiB
Duration : 29mn 3s
Overall bit rate mode : Variable
Overall bit rate : 23.1 Mbps
Encoded date : UTC 2013-01-01 17:40:27
Writing application : mkvmerge v5.6.0 ('Kenya Kane') built on May 27 2012 16:44:04
Writing library : libebml v1.2.3 + libmatroska v1.3.0
Video #1
ID : 1
Format : AVC
Format/Info : Advanced Video Codec
Format profile : High@L4.1
Format settings, CABAC : Yes
Format settings, ReFrames : 4 frames
Muxing mode : Container profile=Unknown@0.0
Codec ID : V_MPEG4/ISO/AVC
Duration : 29mn 3s
Bit rate mode : Variable
Bit rate : 22.4 Mbps
Maximum bit rate : 37.0 Mbps
Width : 1 920 pixels
Height : 1 080 pixels
Display aspect ratio : 16:9
Frame rate : 23.976 fps
Color space : YUV
Chroma subsampling : 4:2:0
Bit depth : 8 bits
Scan type : Progressive
Bits/(Pixel*Frame) : 0.451
Stream size : 4.55 GiB (97%)
Default : No
Forced : No
Audio #2
ID : 2
Format : AC-3
Format/Info : Audio Coding 3
Mode extension : CM (complete main)
Codec ID : A_AC3
Duration : 29mn 3s
Bit rate mode : Constant
Bit rate : 192 Kbps
Channel(s) : 2 channels
Channel positions : Front: L R
Sampling rate : 48.0 KHz
Bit depth : 16 bits
Compression mode : Lossy
Stream size : 39.9 MiB (1%)
Default : Yes
Forced : No

Скриншоты

BDRip 720p
BDRip1080p
[teatrix.ru].t4552.torrent 
Торрент: Зарегистрирован [ 2015-10-08 00:27 ] · 73890AA947A5B8AEE0CB19A7FCC6E4ED8371CA45

Скачать .torrent

Скачать

101 KB

Статус: проверено
Скачан: 0 раз
Размер: 80.01 GB
terms.php



Быстрый ответ

Имя:

      
Для отправки сообщений необходимо включить JavaScript
Показать сообщения:    

Текущее время: 11-Дек 05:19

Часовой пояс: UTC + 3


Вы можете начинать темы
Вы можете отвечать на сообщения
Вы не можете редактировать свои сообщения
Вы не можете удалять свои сообщения
Вы не можете голосовать в опросах
Вы не можете прикреплять файлы к сообщениям
Вы можете скачивать файлы