Шестая часть мира (Дзига Вертов) [1926, СССР, документальный, DVDRip] Sub Eng


Статистика раздачи [Обновить пиров]
Размер:  1.03 GB   |    Зарегистрирован:  1 год 1 месяц   |    Скачан:  0 раз

Полного источника не было: Никогда

 
   
 
 
 

[Цитировать]

Шестая часть мира
Страна: СССР
Жанр: документальный
Год выпуска: 1926
Продолжительность: 01:14:08-Перевод: Субтитры
Cубтитры: английские
Режиссер: Дзига Вертов-В ролях: Население одной шестой части мира.-Описание:
В 1926 г. классик мирового кино Дзига Вертов разослал киноэкспедиции во многие регионы СССР и из снятого материала смонтировал один из своих шедевров – “Шестую часть мира”.
Ещё в марте 1925 года Дзига Вертову и его группе поручили заказ на киноленту о Госторге, который осуществлял экспорт исконно русских товаров. Понимая рекламный характер работы, Вертов, тем не менее, оценил размах выдвинутых предложений. Съемка фильмов о Госторге велась по всему Союзу: отстрел пушнины на Крайнем Севере, уборка льна на севере и в центральных районах, выращивание овец для выделки каракуля на Кавказе, выращивание хлеба в черноземных и южных житницах, погрузка товаров в крупнейших портах. Да и само название картины мало вязалось с рекламно-госторговскими задачами (уже не говоря о финале фильма с поднимающимися на борьбу народами Востока), больше соответствовало вертовским планам - рассказать о человеке, вооруженном киноглазовским зрением.-Доп. информация:
Интертитры на русском языке, музыка - Майкл Найман (Michael Nyman).-Качество видео: DVDRip
Формат видео: AVI
Видео: 640x480 (1.33:1), 25 fps, XviD MPEG-4 ~1762 kbps avg, 0.23 bit/pixel
Аудио: 48 kHz, AC3 Dolby Digital, 2/0 (L,R) ch, ~224.00 kbps avg
Формат субтитров: softsub (SRT)

MediaInfo

Format : AVI
Format/Info : Audio Video Interleave
File size : 1.03 GiB
Duration : 1h 14mn
Overall bit rate : 1 996 Kbps
Writing application : FairUse Wizard - http://fairusewizard.com
Writing library : The best and REALLY easy backup tool
Video
ID : 0
Format : MPEG-4 Visual
Format profile : Advanced Simple@L5
Format settings, BVOP : 1
Format settings, QPel : No
Format settings, GMC : No warppoints
Format settings, Matrix : Default (MPEG)
Muxing mode : Packed bitstream
Codec ID : XVID
Codec ID/Hint : XviD
Duration : 1h 14mn
Bit rate : 1 763 Kbps
Width : 640 pixels
Height : 480 pixels
Display aspect ratio : 4:3
Frame rate : 25.000 fps
Color space : YUV
Chroma subsampling : 4:2:0
Bit depth : 8 bits
Scan type : Progressive
Compression mode : Lossy
Bits/(Pixel*Frame) : 0.229
Stream size : 934 MiB (88%)
Writing library : XviD 1.2.0.dev47 (UTC 2006-11-01)
Audio
ID : 1
Format : AC-3
Format/Info : Audio Coding 3
Mode extension : CM (complete main)
Codec ID : 2000
Duration : 1h 14mn
Bit rate mode : Constant
Bit rate : 224 Kbps
Channel(s) : 2 channels
Channel positions : Front: L R
Sampling rate : 48.0 KHz
Bit depth : 16 bits
Compression mode : Lossy
Stream size : 119 MiB (11%)
Alignment : Split accross interleaves
Interleave, duration : 40 ms (1.00 video frame)
Interleave, preload duration : 500 ms

Скриншот c названием фильма

Скриншоты

[teatrix.ru].t4553.torrent 
Торрент: Зарегистрирован [ 2015-10-08 00:27 ] · 6FA8A8484130F549BE81830613C4C3A0E371B45E

Скачать .torrent

Скачать

11 KB

Статус: проверено
Скачан: 0 раз
Размер: 1.03 GB
terms.php



Быстрый ответ

Имя:

      
Для отправки сообщений необходимо включить JavaScript
Показать сообщения:    

Текущее время: 07-Дек 13:31

Часовой пояс: UTC + 3


Вы можете начинать темы
Вы можете отвечать на сообщения
Вы не можете редактировать свои сообщения
Вы не можете удалять свои сообщения
Вы не можете голосовать в опросах
Вы не можете прикреплять файлы к сообщениям
Вы можете скачивать файлы