Феномен "Догмы" / The Purified / De lutrede (Йеспер Йаргил / Jesper Jargil) [2002, Дания, документальный, история кино, арт-хаус, DVB] DVO (Видеопродакшн)


Статистика раздачи [Обновить пиров]
Размер:  1015 MB   |    Зарегистрирован:  1 год 2 месяца   |    Скачан:  0 раз

Полного источника не было: Никогда

 
   
 
 
 

[Цитировать]

Феномен "Догмы"
The Purified / De lutrede- Страна: Дания
Жанр: документальный, история кино, арт-хаус
Год выпуска: 2002
Продолжительность: 01:07:53
Перевод: Профессиональный (двухголосый закадровый) (компания "Видеопродакшн" по заказу канала "24ДОК")
Cубтитры: нет
Оригинальная аудиодорожка: нет
Режиссер: Йеспер Йаргил / Jesper Jargil
В ролях: Ларс Фон Триер / Lars von Trier, Томас Винтенберг / Thomas Vinterberg
Описание: Создатели манифеста "Догма-95", в числе которых режиссер Ларс Фон Триер, рассказывают, как родилась идея снимать фильмы революционным способом. Их размышления, аргументы, противоречия дают понять, насколько велик масштаб этого феномена и как он повлиял на всю историю кинематографа. (анонс канала "24ДОК")
Доп. информация: Собственная запись со спутника (канал "24ДОК").
Награда: Гран-при Odense International Film Festival 2002.
Информация: http://www.imdb.com/title/tt0330583/
Сэмпл: http://multi-up.com/808137
Качество видео: DVB
Формат видео: MPEG-PS
Видео: MPEG Video 2, 720x576@768x576 (4:3), 25 fps, ~1857 kbps avg, 0.179 bit/pixel
Аудио: 48 kHz, MPEG Audio 2, 2 ch, ~192.00 kbps avg

MediaInfo

Полное имя : H:\My Torrents\[apreder]The_Purified(2002)DVB.mpgФормат : MPEG-PSРазмер файла : 1015 МбайтПродолжительность : 1 ч. 7 м.Режим общего битрейта : ПеременныйОбщий поток : 2090 Кбит/сек
ВидеоИдентификатор : 224 (0xE0)Формат : MPEG VideoВерсия формата : Version 2Профиль формата : Main@MainПараметр BVOP формата : ДаПараметр матрицы формата : ВыборочнаяПараметр GOP формата : M=2, N=24Продолжительность : 1 ч. 7 м.Вид битрейта : ПеременныйБитрейт : 1857 Кбит/секШирина : 720 пикселейВысота : 576 пикселейСоотношение сторон : 4:3Частота кадров : 25,000 кадров/секСтандарт вещания : PALЦветовое пространство : YUVСубдискретизация насыщенности : 4:2:0Битовая глубина : 8 битТип развёртки : ЧересстрочнаяПорядок развёртки : Верхнее поле первоеМетод сжатия : С потерямиБит/(Пиксели*Кадры) : 0.179Размер потока : 902 Мбайт (89%)
АудиоИдентификатор : 192 (0xC0)Формат : MPEG AudioВерсия формата : Version 1Профиль формата : Layer 2Продолжительность : 1 ч. 7 м.Вид битрейта : ПостоянныйБитрейт : 192 Кбит/секКаналы : 2 каналаЧастота : 48,0 КГцМетод сжатия : С потерямиРазмер потока : 93,2 Мбайт (9%)

Скриншот c названием фильма

Скриншоты


Скриншоты анаморфированные


-525/507√
[teatrix.ru].t4554.torrent 
Торрент: Зарегистрирован [ 2015-10-08 00:27 ] · 0058B8899F308043924D8E36E1B3CC93D7F17BBC

Скачать .torrent

Скачать

20 KB

Статус: проверено
Скачан: 0 раз
Размер: 1015 MB
terms.php



Быстрый ответ

Имя:

      
Для отправки сообщений необходимо включить JavaScript
Показать сообщения:    

Текущее время: 09-Дек 08:51

Часовой пояс: UTC + 3


Вы можете начинать темы
Вы можете отвечать на сообщения
Вы не можете редактировать свои сообщения
Вы не можете удалять свои сообщения
Вы не можете голосовать в опросах
Вы не можете прикреплять файлы к сообщениям
Вы можете скачивать файлы