Гики берут реванш / La revanche des geeks (Жан-Баптист Пертье / Jean-Baptiste Peretie / Jean-Baptiste Péretié) [2011, Франция, США, Израиль, креативная документалистика, познавательный, DVB] Original (Fre) + Sub (ru hard, Eclair Group)


Статистика раздачи [Обновить пиров]
Размер:  1.21 GB   |    Зарегистрирован:  1 год 1 месяц   |    Скачан:  0 раз

Полного источника не было: Никогда

 
   
 
 
 

[Цитировать]

Гики берут реванш
La revanche des geeks- Страна: Франция, США, Израиль
Жанр: креативная документалистика, познавательный
Год выпуска: 2011
Продолжительность: 00:51:50
Перевод: Субтитры (перевод Е. Маньен, Éclair Group)
Cубтитры: русские
Оригинальная аудиодорожка: французский
Режиссер: Жан-Баптист Пертье / Jean-Baptiste Péretié
В ролях: Билл Гейтс, Стив Джобс
Описание: 2042 год. Мир изменился. С крупнейшими памятниками планеты произошли необъяснимые изменения. Эта трансформация началась, когда гики, малочисленное и беззащитное племя, завоевали вселенную. Их обычаи и развлечения, в прошлом – предмет насмешек, поглотили культуру, подобно тому, как черная дыра поглощает материю. Их история превратилась в легенду, легенда – в один из мифов человечества: миф о неудачниках, оказавшихся в итоге смелее и умнее всех. Как же гикам удалось одержать эту победу? Чтобы ответить на этот вопрос, нам придется заглянуть в далекое прошлое, в эпоху, когда слово "гик" только входило в обиход. (из предисловия к фильму)-Гик - человек, чрезмерно увлечённый чем-либо. В подавляющем большинстве случаев, употребляется по отношению к людям, увлечённым технологиями, чаще всего компьютерными. Несмотря на стереотипы о замкнутости и неспособности к общению, именно гики сегодня в полной мере используют весь спектр современных коммуникационных средств: Twitter, мобильная связь, блоги, социальные сети и др. (Wikipedia)-Вам предлагается необычная, забавная и увлекательная история возникновения понятия "гик".
Доп. информация: запись со спутника (канал TV5MONDE). Во время диалогов не на французском языке на экране дополнительно вшитые французские субтитры.
Сэмпл: http://multi-up.com/801697
Качество видео: DVB
Формат видео: MPG
Видео: MPEG Video 2, 720x576@1024x576 (16:9), 25 fps, ~3084 kbps avg
Аудио: Французский (48 kHz, MPEG Audio 2, 2 ch, ~192.00 kbps avg)
Формат субтитров: hardsub (неотключаемые)

MediaInfo

Полное имя : H:\My Torrents\[apreder]La_revanche_des_geeks(2011)DVB.mpgФормат : MPEG-PSРазмер файла : 1,21 ГбайтПродолжительность : 51 м.Режим общего битрейта : ПеременныйОбщий поток : 3342 Кбит/сек
ВидеоИдентификатор : 224 (0xE0)Формат : MPEG VideoВерсия формата : Version 2Профиль формата : Main@MainПараметр BVOP формата : ДаПараметр матрицы формата : ВыборочнаяПараметр GOP формата : M=3, N=24Продолжительность : 51 м.Вид битрейта : ПеременныйБитрейт : 3084 Кбит/секШирина : 720 пикселейВысота : 576 пикселейСоотношение сторон : 16:9Частота кадров : 25,000 кадров/секСтандарт вещания : PALЦветовое пространство : YUVСубдискретизация насыщенности : 4:2:0Битовая глубина : 8 битТип развёртки : ПрогрессивнаяПорядок развёртки : Верхнее поле первоеМетод сжатия : С потерямиБит/(Пиксели*Кадры) : 0.297Размер потока : 1,12 Гбайт (92%)
АудиоИдентификатор : 192 (0xC0)Формат : MPEG AudioВерсия формата : Version 1Профиль формата : Layer 2Продолжительность : 51 м.Вид битрейта : ПостоянныйБитрейт : 192 Кбит/секКаналы : 2 каналаЧастота : 48,0 КГцМетод сжатия : С потерямиРазмер потока : 71,2 Мбайт (6%)

Скриншот c названием фильма

Скриншоты


Скриншоты анаморфированные


-498/480√
[teatrix.ru].t4555.torrent 
Торрент: Зарегистрирован [ 2015-10-08 00:27 ] · 6013B1BAB93628EFB1BED8DAE33F183507E52806

Скачать .torrent

Скачать

13 KB

Статус: проверено
Скачан: 0 раз
Размер: 1.21 GB
terms.php



Быстрый ответ

Имя:

      
Для отправки сообщений необходимо включить JavaScript
Показать сообщения:    

Текущее время: 04-Дек 17:19

Часовой пояс: UTC + 3


Вы можете начинать темы
Вы можете отвечать на сообщения
Вы не можете редактировать свои сообщения
Вы не можете удалять свои сообщения
Вы не можете голосовать в опросах
Вы не можете прикреплять файлы к сообщениям
Вы можете скачивать файлы