Поваккатси: Жизнь в трансформации / Powaqqatsi: Life In Transformation (Годфри Реджио / Godfrey Reggio) [1988, Документальный, Blu-Ray 1080p]


Статистика раздачи [Обновить пиров]
Размер:  20.87 GB   |    Зарегистрирован:  1 год 1 месяц   |    Скачан:  0 раз

Полного источника не было: Никогда

 
   
 
 
 

[Цитировать]

Поваккатси: Жизнь в трансформации / Powaqqatsi: Life In Transformation Год выпуска: 1988
Страна: США
Жанр: Документальный
Продолжительность: 01:39:44
Перевод: Не требуется (музыкальное сопровождение)
Русские субтитры: нет
Режиссер: Годфри Реджио / Godfrey Reggio
Описание: Красивое и возвышенное определение «колдовство жизни» тем более ценно и не оставляет сомнений в своей истинности, поскольку оно рождается фактически на наших глазах из вроде бы простого наблюдения за явно скудным с материальной точки зрения и даже нищим бытием малоразвитых стран далеко от современных мегаполисов. Однако это пребывание на краю света наполнено удивительным многообразием красок и таит в себе подлинные богатства неиспользованной энергии.
И то, что принято называть сырьевыми ресурсами или запасами природы, в полной мере может быть отнесено и к многочисленному человеческому сообществу, пока остающемуся в унизительном положении если не рабов, то весьма дешёвой рабочей силы, которую нещадно эксплуатирует считающая себя исключительно прогрессивной «западная система» существования на Земле...

Дополнительная информация: За предоставленный материал большое спасибо Aniki
Качество: Blu-Ray 1080р
Формат: BDМV
Видео кодек: MPEG-4 AVC Video
Аудио кодек: DTS-HD Master Audio
Видео: MPEG-4 AVC Video, 1920 х 1080 (16:9), 23,976 кадров/сек, 24,103 кбит/сек
Аудио: DTS-HD Master Audio English 2166 kbps 5.1 / 48 kHz / 2166 kbps / 16-bit (DTS Core: 5.1 / 48 kHz / 1536 kbps / 16-bit)
Субтитры: Немецкие
Сэмпл: Скачать
Релиз:

Скриншоты

Отчет BD Info:

Disc Title: Поваккатси -ukraine-
Disc Size: 22 410 975 692 bytes
Protection: AACS
BD-Java: No
Notes:
BDINFO HOME AND REPORTS SUBMISSION:
Cinema Squid
http://www.cinemasquid.com/Tools.aspx
INCLUDES FORUMS REPORT FOR:
Unofficial Blu-ray Audio and Video Specifications Thread
http://www.avsforum.com/avs-vb/showthread.php?t=760714
http://forum.blu-ray.com/showthread.php?t=3338
********************
PLAYLIST: 00009.MPLS
********************
Total   Video
Title                                                           Codec   Length  Movie Size      Disc Size       Bitrate Bitrate Main Audio Track                          Secondary Audio Track
-----                                                           ------  ------- --------------  --------------  ------- ------- ------------------                        ---------------------
00009.MPLS                                                      AVC     1:39:44 20 740 536 192  22 410 975 692  27,72   24,10   DTS-HD Master 5.1 2166Kbps (48kHz/16-bit)
DISC INFO:
Disc Title:     Поваккатси -ukraine-
Disc Size:      22 410 975 692 bytes
Protection:     AACS
BD-Java:        No
PLAYLIST REPORT:
Name:                   00009.MPLS
Size:                   20 740 536 192 bytes
Length:                 1:39:44 (h:m:s)
Total Bitrate:          27,72 Mbps
Description:
VIDEO:
Codec                   Bitrate             Description
-----                   -------             -----------
MPEG-4 AVC Video        24103 kbps          1080p / 23,976 fps / 16:9 / High Profile 4.1
AUDIO:
Codec                           Language        Bitrate         Description
-----                           --------        -------         -----------
DTS-HD Master Audio             English         2166 kbps       5.1 / 48 kHz / 2166 kbps / 16-bit (DTS Core: 5.1 / 48 kHz / 1536 kbps / 16-bit)
SUBTITLES:
Codec                           Language        Bitrate         Description
-----                           --------        -------         -----------
Presentation Graphics           German          0,144 kbps
FILES:
Name            Time In         Length          Size            Total Bitrate
----            -------         ------          ----            -------------
00023.M2TS      0:00:00.000     1:39:44.979     20 740 536 192  27 723
CHAPTERS:
Number          Time In         Length          Avg Video Rate  Max 1-Sec Rate  Max 1-Sec Time  Max 5-Sec Rate  Max 5-Sec Time  Max 10Sec Rate  Max 10Sec Time  Avg Frame Size  Max Frame Size  Max Frame Time
------          -------         ------          --------------  --------------  --------------  --------------  --------------  --------------  --------------  --------------  --------------  --------------
1               0:00:00.000     0:07:51.596     23 665 kbps     35 181 kbps     00:00:05.797    33 875 kbps     00:00:02.043    32 348 kbps     00:01:14.949    123 367 bytes   571 853 bytes   00:01:35.845
2               0:07:51.596     0:08:41.854     26 247 kbps     38 313 kbps     00:16:31.740    33 133 kbps     00:08:26.047    32 956 kbps     00:08:25.922    136 840 bytes   418 626 bytes   00:14:21.986
3               0:16:33.450     0:07:08.386     24 966 kbps     31 475 kbps     00:19:16.822    28 179 kbps     00:19:16.822    26 684 kbps     00:19:11.400    130 163 bytes   397 323 bytes   00:17:15.367
4               0:23:41.837     0:07:33.953     24 870 kbps     35 280 kbps     00:26:47.606    28 162 kbps     00:26:45.020    26 457 kbps     00:26:40.765    129 663 bytes   563 906 bytes   00:28:24.911
5               0:31:15.790     0:03:15.320     25 300 kbps     34 882 kbps     00:31:54.329    32 290 kbps     00:31:30.722    32 142 kbps     00:31:28.344    131 905 bytes   562 499 bytes   00:31:54.412
6               0:34:31.110     0:02:54.507     25 031 kbps     36 285 kbps     00:34:46.000    30 872 kbps     00:34:46.000    28 634 kbps     00:34:42.997    130 498 bytes   559 858 bytes   00:34:46.042
7               0:37:25.618     0:08:11.491     24 996 kbps     33 069 kbps     00:41:07.214    30 269 kbps     00:42:00.100    28 517 kbps     00:41:58.599    130 318 bytes   425 171 bytes   00:44:25.537
8               0:45:37.109     0:02:31.943     24 498 kbps     28 310 kbps     00:47:16.250    25 657 kbps     00:47:13.747    25 473 kbps     00:47:15.499    127 721 bytes   319 501 bytes   00:47:38.272
9               0:48:09.052     0:06:56.833     25 171 kbps     33 950 kbps     00:48:37.956    31 570 kbps     00:48:19.062    30 848 kbps     00:48:15.559    131 231 bytes   472 193 bytes   00:48:37.998
10              0:55:05.885     0:04:10.875     24 994 kbps     31 920 kbps     00:57:56.389    27 438 kbps     00:56:52.784    26 280 kbps     00:57:56.389    130 307 bytes   359 144 bytes   00:59:02.497
11              0:59:16.761     0:04:41.406     25 005 kbps     30 123 kbps     01:00:36.424    26 952 kbps     01:01:47.954    26 093 kbps     01:00:27.415    130 366 bytes   344 106 bytes   01:03:14.957
12              1:03:58.167     0:07:01.754     25 000 kbps     30 282 kbps     01:08:47.832    26 509 kbps     01:09:19.613    25 791 kbps     01:08:46.330    130 337 bytes   491 236 bytes   01:09:20.865
13              1:10:59.922     0:03:47.185     25 006 kbps     33 497 kbps     01:11:20.150    27 696 kbps     01:11:19.817    26 325 kbps     01:11:17.815    130 372 bytes   431 132 bytes   01:13:49.716
14              1:14:47.107     0:07:45.631     24 987 kbps     34 428 kbps     01:18:39.548    27 345 kbps     01:16:34.881    26 549 kbps     01:16:31.295    130 269 bytes   420 557 bytes   01:17:19.259
15              1:22:32.739     0:10:37.970     24 306 kbps     31 515 kbps     01:25:24.327    28 169 kbps     01:28:14.622    27 139 kbps     01:28:13.246    126 718 bytes   510 932 bytes   01:28:18.376
16              1:33:10.710     0:06:34.268     12 500 kbps     26 568 kbps     01:39:38.597    22 918 kbps     01:39:37.429    19 361 kbps     01:37:07.696    65 176 bytes    338 758 bytes   01:37:13.202
STREAM DIAGNOSTICS:
File            PID             Type            Codec           Language                Seconds                 Bitrate                 Bytes           Packets
----            ---             ----            -----           --------                --------------          --------------          -------------   -----
00023.M2TS      4113 (0x1011)   0x1B            AVC                                     5984,979                24 103                  18 031 641 916  98 081 699
00023.M2TS      4352 (0x1100)   0x86            DTS-HD MA       eng (English)           5984,979                2 166                   1 620 669 316   9 740 781
00023.M2TS      4608 (0x1200)   0x90            PGS             deu (German)            5984,979                0                       107 741         616
********************
PLAYLIST: 00006.MPLS
********************
Total   Video
Title                                                           Codec   Length  Movie Size      Disc Size       Bitrate Bitrate Main Audio Track                          Secondary Audio Track
-----                                                           ------  ------- --------------  --------------  ------- ------- ------------------                        ---------------------
00006.MPLS                                                      MPEG-2  0:19:55 1 453 707 264   22 410 975 692  9,73    9,00    DD AC3 2.0 192Kbps
DISC INFO:
Disc Title:     Поваккатси -ukraine-
Disc Size:      22 410 975 692 bytes
Protection:     AACS
BD-Java:        No
PLAYLIST REPORT:
Name:                   00006.MPLS
Size:                   1 453 707 264 bytes
Length:                 0:19:55 (h:m:s)
Total Bitrate:          9,73 Mbps
Description:
VIDEO:
Codec                   Bitrate             Description
-----                   -------             -----------
MPEG-2 Video            9000 kbps           576i / 25 fps / 16:9
AUDIO:
Codec                           Language        Bitrate         Description
-----                           --------        -------         -----------
Dolby Digital Audio             English         192 kbps        2.0 / 48 kHz / 192 kbps
SUBTITLES:
Codec                           Language        Bitrate         Description
-----                           --------        -------         -----------
Presentation Graphics           German          20,253 kbps
FILES:
Name            Time In         Length          Size            Total Bitrate
----            -------         ------          ----            -------------
00011.M2TS      0:00:00.000     0:19:55.399     1 453 707 264   9 729
CHAPTERS:
Number          Time In         Length          Avg Video Rate  Max 1-Sec Rate  Max 1-Sec Time  Max 5-Sec Rate  Max 5-Sec Time  Max 10Sec Rate  Max 10Sec Time  Avg Frame Size  Max Frame Size  Max Frame Time
------          -------         ------          --------------  --------------  --------------  --------------  --------------  --------------  --------------  --------------  --------------  --------------
1               0:00:00.000     0:19:55.399     9 000 kbps      10 150 kbps     00:19:03.319    9 250 kbps      00:19:48.760    9 125 kbps      00:19:43.720    45 000 bytes    173 214 bytes   00:19:36.119
STREAM DIAGNOSTICS:
File            PID             Type            Codec           Language                Seconds                 Bitrate                 Bytes           Packets
----            ---             ----            -----           --------                --------------          --------------          -------------   -----
00011.M2TS      4113 (0x1011)   0x02            MPEG-2                                  1195,400                9 000                   1 344 824 926   7 326 171
00011.M2TS      4352 (0x1100)   0x81            AC3             eng (English)           1195,400                192                     28 688 640      186 775
00011.M2TS      4608 (0x1200)   0x90            PGS             deu (German)            1195,400                20                      3 026 304       18 375
********************
PLAYLIST: 00002.MPLS
********************
Total   Video
Title                                                           Codec   Length  Movie Size      Disc Size       Bitrate Bitrate Main Audio Track                          Secondary Audio Track
-----                                                           ------  ------- --------------  --------------  ------- ------- ------------------                        ---------------------
00002.MPLS                                                      MPEG-2  0:02:05 110 100 480     22 410 975 692  7,02    6,43    DD AC3 2.0 192Kbps
DISC INFO:
Disc Title:     Поваккатси -ukraine-
Disc Size:      22 410 975 692 bytes
Protection:     AACS
BD-Java:        No
PLAYLIST REPORT:
Name:                   00002.MPLS
Size:                   110 100 480 bytes
Length:                 0:02:05 (h:m:s)
Total Bitrate:          7,02 Mbps
Description:
VIDEO:
Codec                   Bitrate             Description
-----                   -------             -----------
MPEG-2 Video            6430 kbps           576i / 25 fps / 4:3
AUDIO:
Codec                           Language        Bitrate         Description
-----                           --------        -------         -----------
Dolby Digital Audio             English         192 kbps        2.0 / 48 kHz / 192 kbps
SUBTITLES:
Codec                           Language        Bitrate         Description
-----                           --------        -------         -----------
Presentation Graphics           German          0,307 kbps
FILES:
Name            Time In         Length          Size            Total Bitrate
----            -------         ------          ----            -------------
00010.M2TS      0:00:00.000     0:02:05.399     110 100 480     7 024
CHAPTERS:
Number          Time In         Length          Avg Video Rate  Max 1-Sec Rate  Max 1-Sec Time  Max 5-Sec Rate  Max 5-Sec Time  Max 10Sec Rate  Max 10Sec Time  Avg Frame Size  Max Frame Size  Max Frame Time
------          -------         ------          --------------  --------------  --------------  --------------  --------------  --------------  --------------  --------------  --------------  --------------
1               0:00:00.000     0:02:05.399     6 430 kbps      9 214 kbps      00:01:59.720    8 497 kbps      00:00:51.039    8 224 kbps      00:00:49.000    32 152 bytes    142 813 bytes   00:01:20.960
STREAM DIAGNOSTICS:
File            PID             Type            Codec           Language                Seconds                 Bitrate                 Bytes           Packets
----            ---             ----            -----           --------                --------------          --------------          -------------   -----
00010.M2TS      4113 (0x1011)   0x02            MPEG-2                                  125,400                 6 430                   100 796 827     549 603
00010.M2TS      4352 (0x1100)   0x81            AC3             eng (English)           125,400                 192                     3 008 256       19 585
00010.M2TS      4608 (0x1200)   0x90            PGS             deu (German)            125,400                 0                       4 818           33
********************
PLAYLIST: 00000.MPLS
********************
Total   Video
Title                                                           Codec   Length  Movie Size      Disc Size       Bitrate Bitrate Main Audio Track                          Secondary Audio Track
-----                                                           ------  ------- --------------  --------------  ------- ------- ------------------                        ---------------------
00000.MPLS                                                      AVC     0:00:26 47 683 584      22 410 975 692  14,38   12,88   DD AC3 5.1 640Kbps
DISC INFO:
Disc Title:     Поваккатси -ukraine-
Disc Size:      22 410 975 692 bytes
Protection:     AACS
BD-Java:        No
PLAYLIST REPORT:
Name:                   00000.MPLS
Size:                   47 683 584 bytes
Length:                 0:00:26 (h:m:s)
Total Bitrate:          14,38 Mbps
Description:
VIDEO:
Codec                   Bitrate             Description
-----                   -------             -----------
MPEG-4 AVC Video        12882 kbps          1080p / 23,976 fps / 16:9 / High Profile 4.1
AUDIO:
Codec                           Language        Bitrate         Description
-----                           --------        -------         -----------
Dolby Digital Audio             German          640 kbps        5.1 / 48 kHz / 640 kbps
FILES:
Name            Time In         Length          Size            Total Bitrate
----            -------         ------          ----            -------------
00000.M2TS      0:00:00.000     0:00:26.526     47 683 584      14 381
CHAPTERS:
Number          Time In         Length          Avg Video Rate  Max 1-Sec Rate  Max 1-Sec Time  Max 5-Sec Rate  Max 5-Sec Time  Max 10Sec Rate  Max 10Sec Time  Avg Frame Size  Max Frame Size  Max Frame Time
------          -------         ------          --------------  --------------  --------------  --------------  --------------  --------------  --------------  --------------  --------------  --------------
1               0:00:00.000     0:00:26.526     12 882 kbps     39 719 kbps     00:00:15.598    33 620 kbps     00:00:13.179    28 407 kbps     00:00:11.761    67 161 bytes    543 052 bytes   00:00:13.513
STREAM DIAGNOSTICS:
File            PID             Type            Codec           Language                Seconds                 Bitrate                 Bytes           Packets
----            ---             ----            -----           --------                --------------          --------------          -------------   -----
00000.M2TS      4113 (0x1011)   0x1B            AVC                                     26,527                  12 882                  42 714 153      232 493
00000.M2TS      4352 (0x1100)   0x81            AC3             deu (German)            26,527                  760                     2 519 040       14 760

Отчет Media Info:

Общее
Полное имя : I:\torrent\Поваккатси -ukraine-
Формат : Blu-ray movie
Продолжительность : 1 ч. 39 м.
Общий поток : 0
Видео
Идентификатор : 4113 (0x1011)
Идентификатор меню : 1 (0x1)
Формат : AVC
Формат/Информация : Advanced Video Codec
Профайл формата : High@L4.1
Параметры CABAC формата : Да
Параметры ReFrames формата : 4 кадры
Продолжительность : 1 ч. 39 м.
Вид битрейта : Переменный
Максимальный битрейт : 32,0 Мбит/сек
Ширина : 1920 пикс.
Высота : 1080 пикс.
Соотношение кадра : 16:9
Частота кадров : 23,976 кадр/сек
Стандарт вещания : NTSC
ColorSpace : YUV
ChromaSubsampling : 4:2:0
BitDepth/String : 8 бит
Основные цвета : BT.709-5, BT.1361, IEC 61966-2-4, SMPTE RP177
Характеристики трансфера : BT.709-5, BT.1361
Коэффициенты матрицы : BT.709-5, BT.1361, IEC 61966-2-4 709, SMPTE RP177
Аудио
Идентификатор : 4352 (0x1100)
Формат : DTS
Формат/Информация : Digital Theater Systems
Профайл формата : MA
Продолжительность : 1 ч. 39 м.
Частота : 48,0 КГц
Язык : English
Текст
Идентификатор : 4608 (0x1200)
Формат : PGS
Язык : German
Меню
00:00:00.000 : Chapter 1
00:07:51.596 : Chapter 2
00:16:33.450 : Chapter 3
00:23:41.837 : Chapter 4
00:31:15.790 : Chapter 5
00:34:31.110 : Chapter 6
00:37:25.618 : Chapter 7
00:45:37.109 : Chapter 8
00:48:09.052 : Chapter 9
00:55:05.885 : Chapter 10
00:59:16.761 : Chapter 11
01:03:58.167 : Chapter 12
01:10:59.922 : Chapter 13
01:14:47.107 : Chapter 14
01:22:32.739 : Chapter 15
01:33:10.710 : Chapter 16
01:39:44.853 : Chapter 17
Общее
Полное имя : I:\torrent\Поваккатси -ukraine-\CERTIFICATE\BACKUP\id.bdmv
Размер файла : 104 байт
Общее
Полное имя : I:\torrent\Поваккатси -ukraine-\CERTIFICATE\id.bdmv
Размер файла : 104 байт
[teatrix.ru].t4556.torrent 
Торрент: Зарегистрирован [ 2015-10-08 00:27 ] · 473CF38AC0F225F269F0877F7FBCE49C80C9829D

Скачать .torrent

Скачать

113 KB

Статус: проверено
Скачан: 0 раз
Размер: 20.87 GB
terms.php



Быстрый ответ

Имя:

      
Для отправки сообщений необходимо включить JavaScript
Показать сообщения:    

Текущее время: 03-Дек 22:47

Часовой пояс: UTC + 3


Вы можете начинать темы
Вы можете отвечать на сообщения
Вы не можете редактировать свои сообщения
Вы не можете удалять свои сообщения
Вы не можете голосовать в опросах
Вы не можете прикреплять файлы к сообщениям
Вы можете скачивать файлы