Коянискацци / Koyaanisqatsi: Life Out of Balance (Годфри Реджио / Godfrey Reggio) [1982, Документальный, музыка, Blu-Ray Disc 1080p]


Статистика раздачи [Обновить пиров]
Размер:  19.03 GB   |    Зарегистрирован:  1 год 1 месяц   |    Скачан:  0 раз

Полного источника не было: Никогда

 
   
 
 
 

[Цитировать]

Коянискацци / Koyaanisqatsi: Life Out of Balance«Until now, you've never really seen the world you live in» Год выпуска: 1982
Страна: США
Выпущено: Santa Fe Institute for Regional Education
Жанр: Документальный, музыка
Продолжительность: 01:26:05
Перевод: Не требуется
Русские субтитры: нет
Режиссер: Годфри Реджио / Godfrey Reggio
Описание: «Koyaanisqatsi» — с языка индейцев племени хопи — это безумная жизнь, беспорядочная жизнь, жизнь на грани распада, жизнь вне баланса, жизнь, требующая изменений во имя продолжения жизни…
"Коянискацци" (Koyaanisqatsi; Жизнь, выведенная из равновесия) - документальный фильм Годфри Реджио с музыкой композитора-минималиста Филипа Гласса и киносъёмками Рона Фрика. Лента содержит большое количество фрагментов, снятых по технологии замедленной киносъёмки. Фильм полностью лишён дикторского текста и актёрской речи, однако его музыкальное оформление, на которое опирается сюжет, занимает в повествовании такое же значение, как и видеоряд, и, фактически, создаёт атмосферу фильма. Это первый из трилогии фильмов "Кацци", показывающей с различных сторон взаимодействие человека и технологии. Другие две ленты трилогии: "Поваккацци" и "Накойкацци". Более десятилетия из-за лицензионных ограничений фильм "Коянискацци" не издавался, так как Филип Гласс и его ансамбль гастролировали с ним, вживую исполняя музыку прямо перед киноэкраном во время показов...

Дополнительная информация: Фильм «Кояанискатси» создавался 6 лет. 3 года ушло на съемки. Остальные три года были потрачены Годфри Реджио и Филипом Глассом на написание музыки к фильму, на монтаж и на подгонку их друг к другу.
Годфри Реджио изначально хотел пригласить Филипа Гласса в качестве композитора фильма. Он вышел на Гласса через общих знакомых, но композитор заявил: «Я не пишу музыку для фильмов». Однако после долгих уговоров и специального закрытого показа пробного монтажа фильма с использованием музыки Гласса, тот в конце концов согласился написать саундтрек к фильму. Это вылилось в первый коммерческий успех композитора, который в последствии написал музыку для всех последующих фильмов трилогии «Катси».
Изначально Реджио хотел вставить в титры аутентичный символ, плохо поддающийся трактовке, но потом решил, что никто не поймет и не оценит.
Филип Гласс условно разделил фильм на 12 примерно равных частей и написал для каждой индивидуальную музыкальную тему. Когда Реджио увидел и услышал конечный результат, он пришел в ужас от подобного прагматизма и заново перемонтировал фильм, чтобы картинка соответствовала звуку.
Поначалу права на фильм принадлежали кинокомпании Фрэнсиса Форда Копполы «American Zoetrope». Когда компания обанкротилась, права перешли компании «PolyGram». Но и «Полиграм» недолго просуществовала. Сейчас права принадлежат корпорации «MGM».
В фильм есть одна сцена, изображающая горную цепь. Она была отдана режиссеру кинокомпанией MacGillivray-Freeman Films. Это сцена, оставшаяся после съемок «Сияния» (1980).
Качество: Blu-Ray 1080р
Формат: BDМV
Видео кодек: MPEG-4 AVC Video
Аудио кодек: DTS-HD Master Audio 5.1
Видео: MPEG-4 AVC Video, 1920 х 1080 (16:9), 23,976 кадров/сек, 24,899 кбит/сек
Аудио: DTS-HD Master Audio English 1975 kbps 5.1 / 48 kHz / 1975 kbps / 16-bit (DTS Core: 5.1 / 48 kHz / 1536 kbps / 16-bit), 6 канала(ов)
Сэмпл: Скачать
Релиз:
За предоставленный материал большое спасибо Aniki.

Скриншоты










Скриншот меню

Отчет Media Info:

Общее
Полное имя : D:\torrent\123\Коянискацци -ukraine-
Формат : Blu-ray movie
Продолжительность : 1 ч. 26 м.
Общий поток : 0
Видео
Идентификатор : 4113 (0x1011)
Идентификатор меню : 1 (0x1)
Формат : AVC
Формат/Информация : Advanced Video Codec
Профайл формата : High@L4.1
Параметры CABAC формата : Да
Параметры ReFrames формата : 4 кадры
Продолжительность : 1 ч. 26 м.
Вид битрейта : Переменный
Максимальный битрейт : 35,0 Мбит/сек
Ширина : 1920 пикс.
Высота : 1080 пикс.
Соотношение кадра : 16:9
Частота кадров : 23,976 кадр/сек
Стандарт вещания : NTSC
ColorSpace : YUV
ChromaSubsampling : 4:2:0
BitDepth/String : 8 бит
Основные цвета : BT.709-5, BT.1361, IEC 61966-2-4, SMPTE RP177
Характеристики трансфера : BT.709-5, BT.1361
Коэффициенты матрицы : BT.709-5, BT.1361, IEC 61966-2-4 709, SMPTE RP177
Аудио
Идентификатор : 4352 (0x1100)
Формат : DTS
Формат/Информация : Digital Theater Systems
Профайл формата : MA
Продолжительность : 1 ч. 26 м.
Частота : 48,0 КГц
Язык : English
Текст
Идентификатор : 4608 (0x1200)
Формат : PGS
Язык : German
Меню
00:00:00.000 : Chapter 1
00:03:54.234 : Chapter 2
00:11:59.343 : Chapter 3
00:16:27.111 : Chapter 4
00:23:04.383 : Chapter 5
00:26:40.348 : Chapter 6
00:31:08.366 : Chapter 7
00:38:00.611 : Chapter 8
00:44:14.526 : Chapter 9
00:48:58.936 : Chapter 10
00:52:31.398 : Chapter 11
00:59:22.475 : Chapter 12
01:05:53.908 : Chapter 13
01:08:24.308 : Chapter 14
01:15:41.954 : Chapter 15
01:22:16.431 : Chapter 16
01:26:05.660 : Chapter 17
Общее
Полное имя : D:\torrent\123\Коянискацци -ukraine-\CERTIFICATE\BACKUP\id.bdmv
Размер файла : 104 байт
Общее
Полное имя : D:\torrent\123\Коянискацци -ukraine-\CERTIFICATE\id.bdmv
Размер файла : 104 байт

Отчет BD Info:

Disc Title: Коянискацци -ukraine-
Disc Size: 20 428 266 662 bytes
Protection: AACS
BD-Java: No
Notes:
BDINFO HOME AND REPORTS SUBMISSION:
Cinema Squid
http://www.cinemasquid.com/Tools.aspx
INCLUDES FORUMS REPORT FOR:
Unofficial Blu-ray Audio and Video Specifications Thread
http://www.avsforum.com/avs-vb/showthread.php?t=760714
http://forum.blu-ray.com/showthread.php?t=3338
********************
PLAYLIST: 00019.MPLS
********************
Total   Video
Title                                                           Codec   Length  Movie Size      Disc Size       Bitrate Bitrate Main Audio Track                          Secondary Audio Track
-----                                                           ------  ------- --------------  --------------  ------- ------- ------------------                        ---------------------
00019.MPLS                                                      AVC     1:26:05 18 314 403 840  20 428 266 662  28,36   24,90   DTS-HD Master 5.1 1975Kbps (48kHz/16-bit)
DISC INFO:
Disc Title:     Коянискацци -ukraine-
Disc Size:      20 428 266 662 bytes
Protection:     AACS
BD-Java:        No
PLAYLIST REPORT:
Name:                   00019.MPLS
Size:                   18 314 403 840 bytes
Length:                 1:26:05 (h:m:s)
Total Bitrate:          28,36 Mbps
Description:
VIDEO:
Codec                   Bitrate             Description
-----                   -------             -----------
MPEG-4 AVC Video        24899 kbps          1080p / 23,976 fps / 16:9 / High Profile 4.1
AUDIO:
Codec                           Language        Bitrate         Description
-----                           --------        -------         -----------
DTS-HD Master Audio             English         1975 kbps       5.1 / 48 kHz / 1975 kbps / 16-bit (DTS Core: 5.1 / 48 kHz / 1536 kbps / 16-bit)
SUBTITLES:
Codec                           Language        Bitrate         Description
-----                           --------        -------         -----------
Presentation Graphics           German          0,606 kbps
FILES:
Name            Time In         Length          Size            Total Bitrate
----            -------         ------          ----            -------------
00023.M2TS      0:00:00.000     1:26:05.910     18 314 403 840  28 362
CHAPTERS:
Number          Time In         Length          Avg Video Rate  Max 1-Sec Rate  Max 1-Sec Time  Max 5-Sec Rate  Max 5-Sec Time  Max 10Sec Rate  Max 10Sec Time  Avg Frame Size  Max Frame Size  Max Frame Time
------          -------         ------          --------------  --------------  --------------  --------------  --------------  --------------  --------------  --------------  --------------  --------------
1               0:00:00.000     0:03:54.234     26 018 kbps     61 520 kbps     00:00:50.383    37 085 kbps     00:00:50.049    34 490 kbps     00:00:50.008    135 619 bytes   574 397 bytes   00:00:51.051
2               0:03:54.234     0:08:05.109     25 989 kbps     33 783 kbps     00:05:41.382    30 011 kbps     00:05:40.506    27 986 kbps     00:05:35.501    135 493 bytes   406 751 bytes   00:09:48.879
3               0:11:59.343     0:04:27.767     25 983 kbps     47 236 kbps     00:12:56.192    39 014 kbps     00:14:04.927    37 482 kbps     00:14:04.927    135 462 bytes   626 559 bytes   00:14:04.969
4               0:16:27.111     0:06:37.271     26 015 kbps     45 207 kbps     00:22:09.328    31 250 kbps     00:22:05.657    28 080 kbps     00:18:08.629    135 632 bytes   609 959 bytes   00:22:17.544
5               0:23:04.383     0:03:35.965     25 963 kbps     34 510 kbps     00:26:38.221    27 843 kbps     00:26:34.426    26 896 kbps     00:24:04.151    135 357 bytes   353 980 bytes   00:23:21.400
6               0:26:40.348     0:04:28.017     26 002 kbps     41 825 kbps     00:30:52.725    29 545 kbps     00:29:53.333    27 836 kbps     00:30:35.166    135 564 bytes   453 214 bytes   00:31:06.364
7               0:31:08.366     0:06:52.245     26 003 kbps     39 071 kbps     00:35:43.558    29 001 kbps     00:35:40.721    27 728 kbps     00:35:42.890    135 566 bytes   445 959 bytes   00:35:43.683
8               0:38:00.611     0:06:13.915     25 969 kbps     35 969 kbps     00:39:20.107    28 715 kbps     00:40:50.781    27 440 kbps     00:40:45.818    135 391 bytes   480 757 bytes   00:39:20.232
9               0:44:14.526     0:04:44.409     25 983 kbps     30 138 kbps     00:48:37.247    27 046 kbps     00:48:33.535    26 524 kbps     00:46:01.425    135 465 bytes   398 882 bytes   00:44:18.530
10              0:48:58.936     0:03:32.462     25 998 kbps     34 368 kbps     00:52:03.036    28 291 kbps     00:52:01.118    26 988 kbps     00:51:55.821    135 541 bytes   399 663 bytes   00:52:03.078
11              0:52:31.398     0:06:51.077     25 997 kbps     31 615 kbps     00:56:32.597    27 546 kbps     00:56:29.260    26 712 kbps     00:56:24.255    135 536 bytes   406 425 bytes   00:58:40.308
12              0:59:22.475     0:06:31.432     25 989 kbps     45 834 kbps     01:03:27.762    29 713 kbps     01:03:23.758    27 882 kbps     01:03:18.753    135 497 bytes   621 562 bytes   01:03:28.346
13              1:05:53.908     0:02:30.400     25 979 kbps     33 055 kbps     01:07:42.058    28 040 kbps     01:07:38.220    27 369 kbps     01:07:04.603    135 441 bytes   646 865 bytes   01:07:42.183
14              1:08:24.308     0:07:17.645     26 018 kbps     34 883 kbps     01:10:54.750    30 039 kbps     01:13:01.418    28 199 kbps     01:12:56.747    135 644 bytes   419 282 bytes   01:15:07.336
15              1:15:41.954     0:06:34.477     22 772 kbps     38 394 kbps     01:18:49.057    29 056 kbps     01:18:19.861    27 545 kbps     01:18:14.856    118 725 bytes   365 991 bytes   01:18:24.199
16              1:22:16.431     0:03:49.479     6 867 kbps      17 638 kbps     01:25:58.820    14 933 kbps     01:25:58.153    12 145 kbps     01:25:10.021    35 808 bytes    211 113 bytes   01:25:14.609
STREAM DIAGNOSTICS:
File            PID             Type            Codec           Language                Seconds                 Bitrate                 Bytes           Packets
----            ---             ----            -----           --------                --------------          --------------          -------------   -----
00023.M2TS      4113 (0x1011)   0x1B            AVC                                     5165,911                24 899                  16 078 241 867  87 453 901
00023.M2TS      4352 (0x1100)   0x86            DTS-HD MA       eng (English)           5165,911                1 975                   1 275 093 244   7 758 281
00023.M2TS      4608 (0x1200)   0x90            PGS             deu (German)            5165,911                1                       391 637         2 228
********************
PLAYLIST: 00006.MPLS
********************
Total   Video
Title                                                           Codec   Length  Movie Size      Disc Size       Bitrate Bitrate Main Audio Track                          Secondary Audio Track
-----                                                           ------  ------- --------------  --------------  ------- ------- ------------------                        ---------------------
00006.MPLS                                                      MPEG-2  0:25:09 1 835 139 072   20 428 266 662  9,73    9,00    DD AC3 2.0 192Kbps
DISC INFO:
Disc Title:     Коянискацци -ukraine-
Disc Size:      20 428 266 662 bytes
Protection:     AACS
BD-Java:        No
PLAYLIST REPORT:
Name:                   00006.MPLS
Size:                   1 835 139 072 bytes
Length:                 0:25:09 (h:m:s)
Total Bitrate:          9,73 Mbps
Description:
VIDEO:
Codec                   Bitrate             Description
-----                   -------             -----------
MPEG-2 Video            9000 kbps           576i / 25 fps / 16:9
AUDIO:
Codec                           Language        Bitrate         Description
-----                           --------        -------         -----------
Dolby Digital Audio             English         192 kbps        2.0 / 48 kHz / 192 kbps
SUBTITLES:
Codec                           Language        Bitrate         Description
-----                           --------        -------         -----------
Presentation Graphics           German          20,090 kbps
FILES:
Name            Time In         Length          Size            Total Bitrate
----            -------         ------          ----            -------------
00010.M2TS      0:00:00.000     0:25:09.040     1 835 139 072   9 729
CHAPTERS:
Number          Time In         Length          Avg Video Rate  Max 1-Sec Rate  Max 1-Sec Time  Max 5-Sec Rate  Max 5-Sec Time  Max 10Sec Rate  Max 10Sec Time  Avg Frame Size  Max Frame Size  Max Frame Time
------          -------         ------          --------------  --------------  --------------  --------------  --------------  --------------  --------------  --------------  --------------  --------------
1               0:00:00.000     0:25:09.040     9 000 kbps      10 297 kbps     00:00:43.199    9 248 kbps      00:09:37.479    9 132 kbps      00:19:14.439    45 000 bytes    175 055 bytes   00:01:14.560
STREAM DIAGNOSTICS:
File            PID             Type            Codec           Language                Seconds                 Bitrate                 Bytes           Packets
----            ---             ----            -----           --------                --------------          --------------          -------------   -----
00010.M2TS      4113 (0x1011)   0x02            MPEG-2                                  1509,040                9 000                   1 697 669 359   9 248 393
00010.M2TS      4352 (0x1100)   0x81            AC3             eng (English)           1509,040                192                     36 215 808      235 780
00010.M2TS      4608 (0x1200)   0x90            PGS             deu (German)            1509,040                20                      3 789 586       23 242
********************
PLAYLIST: 00002.MPLS
********************
Total   Video
Title                                                           Codec   Length  Movie Size      Disc Size       Bitrate Bitrate Main Audio Track                          Secondary Audio Track
-----                                                           ------  ------- --------------  --------------  ------- ------- ------------------                        ---------------------
00002.MPLS                                                      MPEG-2  0:02:17 166 201 344     20 428 266 662  9,71    9,00    DD AC3 2.0 192Kbps
DISC INFO:
Disc Title:     Коянискацци -ukraine-
Disc Size:      20 428 266 662 bytes
Protection:     AACS
BD-Java:        No
PLAYLIST REPORT:
Name:                   00002.MPLS
Size:                   166 201 344 bytes
Length:                 0:02:17 (h:m:s)
Total Bitrate:          9,71 Mbps
Description:
VIDEO:
Codec                   Bitrate             Description
-----                   -------             -----------
MPEG-2 Video            9000 kbps           576i / 25 fps / 16:9
AUDIO:
Codec                           Language        Bitrate         Description
-----                           --------        -------         -----------
Dolby Digital Audio             English         192 kbps        2.0 / 48 kHz / 192 kbps
SUBTITLES:
Codec                           Language        Bitrate         Description
-----                           --------        -------         -----------
Presentation Graphics           German          0,281 kbps
FILES:
Name            Time In         Length          Size            Total Bitrate
----            -------         ------          ----            -------------
00009.M2TS      0:00:00.000     0:02:17.000     166 201 344     9 705
CHAPTERS:
Number          Time In         Length          Avg Video Rate  Max 1-Sec Rate  Max 1-Sec Time  Max 5-Sec Rate  Max 5-Sec Time  Max 10Sec Rate  Max 10Sec Time  Avg Frame Size  Max Frame Size  Max Frame Time
------          -------         ------          --------------  --------------  --------------  --------------  --------------  --------------  --------------  --------------  --------------  --------------
1               0:00:00.000     0:02:17.000     9 000 kbps      9 997 kbps      00:01:59.880    9 164 kbps      00:00:25.960    9 082 kbps      00:00:20.920    45 000 bytes    150 067 bytes   00:02:02.680
STREAM DIAGNOSTICS:
File            PID             Type            Codec           Language                Seconds                 Bitrate                 Bytes           Packets
----            ---             ----            -----           --------                --------------          --------------          -------------   -----
00009.M2TS      4113 (0x1011)   0x02            MPEG-2                                  137,000                 9 000                   154 124 986     839 556
00009.M2TS      4352 (0x1100)   0x81            AC3             eng (English)           137,000                 192                     3 286 272       21 395
00009.M2TS      4608 (0x1200)   0x90            PGS             deu (German)            137,000                 0                       4 818           33
********************
PLAYLIST: 00000.MPLS
********************
Total   Video
Title                                                           Codec   Length  Movie Size      Disc Size       Bitrate Bitrate Main Audio Track                          Secondary Audio Track
-----                                                           ------  ------- --------------  --------------  ------- ------- ------------------                        ---------------------
00000.MPLS                                                      AVC     0:00:26 47 683 584      20 428 266 662  14,38   12,88   DD AC3 5.1 640Kbps
DISC INFO:
Disc Title:     Коянискацци -ukraine-
Disc Size:      20 428 266 662 bytes
Protection:     AACS
BD-Java:        No
PLAYLIST REPORT:
Name:                   00000.MPLS
Size:                   47 683 584 bytes
Length:                 0:00:26 (h:m:s)
Total Bitrate:          14,38 Mbps
Description:
VIDEO:
Codec                   Bitrate             Description
-----                   -------             -----------
MPEG-4 AVC Video        12882 kbps          1080p / 23,976 fps / 16:9 / High Profile 4.1
AUDIO:
Codec                           Language        Bitrate         Description
-----                           --------        -------         -----------
Dolby Digital Audio             German          640 kbps        5.1 / 48 kHz / 640 kbps
FILES:
Name            Time In         Length          Size            Total Bitrate
----            -------         ------          ----            -------------
00000.M2TS      0:00:00.000     0:00:26.526     47 683 584      14 381
CHAPTERS:
Number          Time In         Length          Avg Video Rate  Max 1-Sec Rate  Max 1-Sec Time  Max 5-Sec Rate  Max 5-Sec Time  Max 10Sec Rate  Max 10Sec Time  Avg Frame Size  Max Frame Size  Max Frame Time
------          -------         ------          --------------  --------------  --------------  --------------  --------------  --------------  --------------  --------------  --------------  --------------
1               0:00:00.000     0:00:26.526     12 882 kbps     39 719 kbps     00:00:15.598    33 620 kbps     00:00:13.179    28 407 kbps     00:00:11.761    67 161 bytes    543 052 bytes   00:00:13.513
STREAM DIAGNOSTICS:
File            PID             Type            Codec           Language                Seconds                 Bitrate                 Bytes           Packets
----            ---             ----            -----           --------                --------------          --------------          -------------   -----
00000.M2TS      4113 (0x1011)   0x1B            AVC                                     26,527                  12 882                  42 714 153      232 493
00000.M2TS      4352 (0x1100)   0x81            AC3             deu (German)            26,527                  760                     2 519 040       14 760
[teatrix.ru].t4559.torrent 
Торрент: Зарегистрирован [ 2015-10-08 00:27 ] · 1E28BB144E47F0D2C5C59FDC82537BFBC7420B81

Скачать .torrent

Скачать

104 KB

Статус: проверено
Скачан: 0 раз
Размер: 19.03 GB
terms.php



Быстрый ответ

Имя:

      
Для отправки сообщений необходимо включить JavaScript
Показать сообщения:    

Текущее время: 04-Дек 06:56

Часовой пояс: UTC + 3


Вы можете начинать темы
Вы можете отвечать на сообщения
Вы не можете редактировать свои сообщения
Вы не можете удалять свои сообщения
Вы не можете голосовать в опросах
Вы не можете прикреплять файлы к сообщениям
Вы можете скачивать файлы