Бегемоты Пабло Эскобара / Pablo\'s Hippos (Антонио фон Хильдебранд / Antonio von Hildebrand, Лоуренс Элман / Lawrence Elman) [2010, Великобритания, Колумбия, креативная документалистика, анимация, наркомафия, DVB] MVO (Студия Лексикон)


Статистика раздачи [Обновить пиров]
Размер:  1.08 GB   |    Зарегистрирован:  1 год 1 месяц   |    Скачан:  0 раз

Полного источника не было: Никогда

 
   
 
 
 

[Цитировать]

Бегемоты Пабло Эскобара
Pablo's Hippos- Страна: Великобритания, Колумбия
Жанр: креативная документалистика, анимация, наркомафия
Год выпуска: 2010
Продолжительность: 00:59:37
Перевод: Профессиональный (многоголосый закадровый, хотя, возможно, детский и женский голос принадлежат одной актрисе) (ООО "Студия Лексикон" по заказу телеканала "24ДОК")
Cубтитры: нет
Оригинальная аудиодорожка: нет
Режиссер: Антонио фон Хильдебранд / Antonio von Hildebrand, Лоуренс Элман / Lawrence Elman
В ролях: Хосе Мария Язпик / José María Yazpik (Pablo Hippo), Антонио фон Хильдебранд / Antonio von Hildebrand (Vanessa)
Описание: 30 лет наркоторговли и гражданской войны в Колумбии глазами необычного питомца одного из самых опасных и могущественных наркобаронов в истории этой страны. История бегемотов Пабло Эскобара – их путешествие из родной Африки, адаптация к новым условиям и превращение в полноправных властителей рек этой чужой для них земли - и параллели с новейшей историей самой Колумбии. (анонс канала "24ДОК")
Доп. информация: Собственная запись со спутника (канал "24ДОК", пакет НТВ+).
Участник: Sundance Film Festival 2010; Phoenix Film Festival 2010; V.E.R.Z.I.O Film Festival 2010; Santa Barbara Film Festival 2011; DOXA Documentary Film Festival 2011.
Информация: http://www.imdb.com/title/tt1770721/

Бегемот колумбийского наркокороля Пабло Эскобара погиб смертью хозяина

Бегемот, принадлежавший колумбийскому наркобарону Пабло Эскобару, разделил судьбу своего хозяина - подался в бега и был убит агентами спецслужб. О печальном конце животного сообщили в субботу представители колумбийских властей.
Пабло Эскобар, глава кокаинового "медельинского картеля", был убит в 1993 году при попытке его ареста. До этого он около года скрывался от правосудия после бегства из тюрьмы. Ввиду особой опасности наркобарона силы правопорядка имели санкцию живым его не брать.
Эскобар, состояние которого оценивалось в три миллиарда долларов, был владельцем настоящего зоосада с экзотическими для Южной Америки животными. Среди них были кенгуру, фламинго, слоны, носороги и девять африканских гиппопотамов, которые успешно размножились в неволе.
После смерти наркобарона и распада его "кокаиновой империи" часть этих животных пристроили в зоопарки, но более двух десятков гиппопотамов продолжают жить на территории обширного ранчо, принадлежавшего Эскобару.
В 2006 году пара бегемотов - самец и самка - бежали на волю и стали жить в болотистой местности в долине реки Магдалена. Местные жители изредка видели пару "влюбленных", которые хорошо прижились в дикой природе на неродном для них континенте. По рассказам очевидцев, местных рыбаков, недавно гиппопотамы произвели на свет детеныша.
В прошлом месяце два журналиста обнаружили "семью" гиппопотамов в ста километрах от ранчо, из которого они сбежали. О находке сообщили местные СМИ. Это обстоятельство стало роковым для животных. Колумбийское ведомство по окружающей среде распорядилось уничтожить зверей-чужаков. По мнению чиновников, гиппопотамы представляют угрозу для людей и являются переносчиками опасных инфекций.
Колумбийские военные и лесники устроили облаву на бегемотов. Гиппопотам-самец, которому местные жители дали кличку "Пепе", был застрелен. Охота на самку и детеныша продолжается. По телевидению были показаны кадры, на которых солдаты и охотники сняты рядом с тушей убитого бегемота.
Защитники прав животных осудили поведение властей. По их мнению, животных можно было взять живыми и поместить в зоопарк, сообщает ИТАР-ТАСС.
Но официальные инстанции непреклонны. "Эти звери могут кого- нибудь ранить, это только вопрос времени. После двухлетних попыток поймать их решение убить было обоснованным", - заявил министр охраны окружающей среды Колумбии Карлос Коста. (NEWSru, 12 июля 2009)
Сэмпл: http://multi-up.com/793423
Качество видео: DVB
Формат видео: MPEG-PS (См. при проблемах с просмотром видео)
Видео: MPEG Video 2, 720x576@768x576 (4:3), 25 fps, ~2361 kbps avg
Аудио: 48 kHz, MPEG Audio 2, 2 ch, ~192.00 kbps avg

MediaInfo

Полное имя : H:\My Torrents\[apreder]Pablo's_Hippos(2010)DVB.mpgФормат : MPEG-PSРазмер файла : 1,08 ГбайтПродолжительность : 59 м.Режим общего битрейта : ПеременныйОбщий поток : 2605 Кбит/сек
ВидеоИдентификатор : 224 (0xE0)Формат : MPEG VideoВерсия формата : Version 2Профиль формата : Main@MainПараметр BVOP формата : ДаПараметр матрицы формата : ВыборочнаяПараметр GOP формата : M=1, N=24Продолжительность : 59 м.Вид битрейта : ПеременныйБитрейт : 2361 Кбит/секШирина : 720 пикселейВысота : 576 пикселейСоотношение сторон : 4:3Частота кадров : 25,000 кадров/секСтандарт вещания : PALЦветовое пространство : YUVСубдискретизация насыщенности : 4:2:0Битовая глубина : 8 битТип развёртки : ЧересстрочнаяПорядок развёртки : Верхнее поле первоеМетод сжатия : С потерямиБит/(Пиксели*Кадры) : 0.228Размер потока : 1007 Мбайт (91%)
АудиоИдентификатор : 192 (0xC0)Формат : MPEG AudioВерсия формата : Version 1Профиль формата : Layer 2Продолжительность : 59 м.Вид битрейта : ПостоянныйБитрейт : 192 Кбит/секКаналы : 2 каналаЧастота : 48,0 КГцМетод сжатия : С потерямиРазмер потока : 81,9 Мбайт (7%)

Скриншот c названием фильма

Скриншоты анаморфированные



-474/456√
[teatrix.ru].t4564.torrent 
Торрент: Зарегистрирован [ 2015-10-08 00:27 ] · 1C8DC221FBE6442B58D3CDF9EBA29B6CF14D67D7

Скачать .torrent

Скачать

11 KB

Статус: проверено
Скачан: 0 раз
Размер: 1.08 GB
terms.php



Быстрый ответ

Имя:

      
Для отправки сообщений необходимо включить JavaScript
Показать сообщения:    

Текущее время: 04-Дек 13:15

Часовой пояс: UTC + 3


Вы можете начинать темы
Вы можете отвечать на сообщения
Вы не можете редактировать свои сообщения
Вы не можете удалять свои сообщения
Вы не можете голосовать в опросах
Вы не можете прикреплять файлы к сообщениям
Вы можете скачивать файлы