Крошка / Crumb (Терри Цвигофф / Terry Zwigoff) [1994, США, документальный, биография, DVDRip] Sub Rus + Original Eng


Статистика раздачи [Обновить пиров]
Размер:  2.53 GB   |    Зарегистрирован:  1 год 1 месяц   |    Скачан:  0 раз

Полного источника не было: Никогда

 
   
 
 
 

[Цитировать]

Крошка / Crumb
Страна: США
Жанр: документальный, биография
Год выпуска: 1994
Продолжительность: 01:59:00
Перевод: Субтитры
Cубтитры: русские
Оригинальная аудиодорожка: английский
Режиссер: Терри Цвигофф / Terry Zwigoff
В ролях: Роберт Крамб, Алин Комински, Чарльз Крамб, Максон Крамб, Роберт Хьюз, Мартин Мюллер, Дон Донахью, Дэна Крамб, Трина Роббинс, Спэйн Родригез
Описание: Документальный фильм об авторе андерграундных комиксов Роберте Крамбе, творчество которого включало в себя навязчивые сексуальные идеи, социальную критику и личные наблюдения за странностями человеческой психологии.
Доп. информация: Фильм спродюссирован Дэвидом Линчем
Качество видео: DVDRip
Формат видео: AVI
Видео: XVID, 960 x 720, 4:3, 23.976 fps, 2800 kbps
Аудио: AC3 Dolby Digital, 48 kHz, 192, kbps, Front C
Формат субтитров: softsub (SRT)

MediaInfo

D:\NewMOvie\Crumb 1994 BRRip XvidHD 720p-NPW [NO-RAR] - [ www.torrentday.com ]\Crumb.avi
General
Complete name : D:\NewMOvie\Crumb 1994 BRRip XvidHD 720p-NPW [NO-RAR] - [ www.torrentday.com ]\Crumb.avi
Format : AVI
Format/Info : Audio Video Interleave
Format profile : OpenDML
File size : 2.53 GiB
Duration : 2h 0mn
Overall bit rate : 3 002 Kbps
Writing application : VirtualDubMod 1.5.10.2 (build 2540/release)
Writing library : VirtualDubMod build 2540/release
Video #0
ID : 0
Format : MPEG-4 Visual
Format profile : Advanced Simple@L5
Format settings, BVOP : 1
Format settings, QPel : No
Format settings, GMC : No warppoints
Format settings, Matrix : Default (H.263)
Codec ID : XVID
Codec ID/Hint : XviD
Duration : 2h 0mn
Bit rate : 2 799 Kbps
Width : 960 pixels
Height : 720 pixels
Display aspect ratio : 4:3
Frame rate : 23.976 fps
Color space : YUV
Chroma subsampling : 4:2:0
Bit depth : 8 bits
Scan type : Progressive
Compression mode : Lossy
Bits/(Pixel*Frame) : 0.169
Stream size : 2.36 GiB (93%)
Writing library : XviD 1.2.1 (UTC 2008-12-04)
Audio #1
ID : 1
Format : AC-3
Format/Info : Audio Coding 3
Mode extension : CM (complete main)
Format settings, Endianness : Big
Codec ID : 2000
Duration : 2h 0mn
Bit rate mode : Constant
Bit rate : 192 Kbps
Channel(s) : 1 channel
Channel positions : Front: C
Sampling rate : 48.0 KHz
Bit depth : 16 bits
Compression mode : Lossy
Stream size : 166 MiB (6%)
Alignment : Aligned on interleaves
Interleave, duration : 42 ms (1.00 video frame)
Interleave, preload duration : 512 ms

Субтитры

7
00:02:40,182 --> 00:02:43,845
Я не рисую в смысле осознанных посланий.
У меня так не получается.
8
00:02:44,019 --> 00:02:46,910
Это что-то ...
9
00:02:46,988 --> 00:02:50,287
Что я открываю сам себе в этом процессе,
сложно объяснить.
10
00:02:50,358 --> 00:02:53,657
В смысле, пока я этим занят,
я не знаю что происходит.
11
00:02:53,728 --> 00:02:58,256
Нужно быть смелее, чтобы этим пользоваться.
12
00:02:58,333 --> 00:03:00,267
Что это будет?
13
00:03:00,335 --> 00:03:02,860
Что из этого получится?
14
00:03:02,937 --> 00:03:04,871
Мне нравиться рисовать.
15
00:03:04,939 --> 00:03:08,397
Это глубоко укоренившаяся привычка.
Все из-за моего брата, Чарльза.
16
00:03:10,845 --> 00:03:12,870
Привет, мама?
Я в Филадельфии.
17
00:03:14,582 --> 00:03:19,952
У меня завтра выступление в арт-школе в центре.
18
00:03:20,021 --> 00:03:23,582
Так что Терри с съемочной группой здесь со мной.
19
00:03:23,658 --> 00:03:28,186
Они хотят зайти, а потом отвезти меня туда...
20
00:03:28,262 --> 00:03:31,891
и... возможно... поговорить с Чарльзом...
21
00:03:31,966 --> 00:03:34,764
о интервью для фильма,
если ты не...
22
00:03:35,837 --> 00:03:39,238
Он не хочет?
Ладно.
23
00:03:40,775 --> 00:03:42,766
Хорошо.
24
00:03:42,844 --> 00:03:44,539
Это нормально.
25
00:03:44,612 --> 00:03:46,102
Не важно.
26
00:03:47,582 --> 00:03:50,915
Нет, если ты не хочешь чтобы он.
Я уж точно не...
27
00:03:53,454 --> 00:03:55,854
Ладно. Пока.

Скриншот c названием фильма

Скриншоты




[teatrix.ru].t4566.torrent 
Торрент: Зарегистрирован [ 2015-10-08 00:27 ] · AC2F44D6908EC3DD9C30CF6AAB91106DBBF30C09

Скачать .torrent

Скачать

4 KB

Статус: проверено
Скачан: 0 раз
Размер: 2.53 GB
terms.php



Быстрый ответ

Имя:

      
Для отправки сообщений необходимо включить JavaScript
Показать сообщения:    

Текущее время: 06-Дек 13:16

Часовой пояс: UTC + 3


Вы можете начинать темы
Вы можете отвечать на сообщения
Вы не можете редактировать свои сообщения
Вы не можете удалять свои сообщения
Вы не можете голосовать в опросах
Вы не можете прикреплять файлы к сообщениям
Вы можете скачивать файлы