Нам Джун Пайк: пионер видеоарта / Play It Again Nam! (Жан-Поль Фаржье / Jean-Paul Fargier) [1990, Франция, документальный, видеоарт, DVB] VO (24ДОК)


Статистика раздачи [Обновить пиров]
Размер:  557 MB   |    Зарегистрирован:  1 год 2 месяца   |    Скачан:  0 раз

Полного источника не было: Никогда

 
   
 
 
 

[Цитировать]

Нам Джун Пайк: пионер видеоарта
Play It Again Nam!- Страна: Франция
Жанр: документальный, видеоарт
Год выпуска: 1990
Продолжительность: 00:28:44
Перевод: Студийный (одноголосый закадровый) (по заказу канала "24ДОК")
Cубтитры: нет
Режиссер: Жан-Поль Фаржье / Jean-Paul Fargier
В ролях: Нам Джун Пайк / Nam June Paik
Описание: Нам Джун Пайк (1932 - 2006) - американо-корейский художник, основатель видеоарта. Он сыграл ключевую роль в приобщении художников и аудитории к возможностям использования видео для творческого самовыражения. Нам Джун Пайк одним из первых начал трансформировать видео изображение, переходя от буквальной репрезентации объектов и событий к выражению их художественного видения. Его работы затрагивают темы времени и памяти, природу музыки и искусства, суть сенсорного опыта.
Пайк начал инкорпорировать телевизоры в серию скульптур, изображавших роботов. Ранние работы такого плана были сконструированы преимущественно из кусков проволоки и металла, позднее включали радио и телевизоры. Некоторые скульптуры включали один монитор, другие использовали серию мониторов. Пайк и инженер Шуя Абе построили первую модель видео синтезатора, который создавал абстрактные изображения. Пайк использовал синтезатор для сопровождения рок-н-ролла в Video Commune и иллюстрации Четвёртого фортепианного концертаБетховена.
Ретроспектива работ Пайка прошла в Whitney Museum of American Art весной 1982. Во время празднования нового года 1 января 1984, в эфире прошла передача Good Morning, Mr. Orwell, прямой эфир между Нью-Йорком, Центром Помпиду в Париже и Южной Кореей. С участием Джона Кейджа, Сальвадора Дали, Лори Андерсон, Джозефа Бойса, Мерс Каннингем, Аллена Гинзберга и Питера Орловски, Джорджа Плимптона и других художников. Пайк показал, что "Большой брат" Оруэлла не состоялся. (Wikipedia)
Доп. информация: Собственная запись со спутника (канал "24ДОК", пакет НТВ+).
Сэмпл: http://multi-up.com/782387
Качество видео: DVB
Формат видео: MPG
Видео: MPEG Video 2, 720x576@768x576 (4:3), 25 fps, ~2461 kbps avg
Аудио: 48 kHz, MPEG Audio 2, 2 ch, ~192.00 kbps avg

MediaInfo

Полное имя : H:\My Torrents\[apreder]Play_It_Again_Nam(1990)DVB.mpgФормат : MPEG-PSРазмер файла : 557 МбайтПродолжительность : 28 м.Режим общего битрейта : ПеременныйОбщий поток : 2707 Кбит/сек
ВидеоИдентификатор : 224 (0xE0)Формат : MPEG VideoВерсия формата : Version 2Профиль формата : Main@MainПараметр BVOP формата : ДаПараметр матрицы формата : ВыборочнаяПараметр GOP формата : M=3, N=24Продолжительность : 28 м.Вид битрейта : ПеременныйБитрейт : 2461 Кбит/секШирина : 720 пикселейВысота : 576 пикселейСоотношение сторон : 4:3Частота кадров : 25,000 кадров/секСтандарт вещания : PALЦветовое пространство : YUVСубдискретизация насыщенности : 4:2:0Битовая глубина : 8 битТип развёртки : ЧересстрочнаяПорядок развёртки : Верхнее поле первоеМетод сжатия : С потерямиБит/(Пиксели*Кадры) : 0.237Размер потока : 506 Мбайт (91%)
АудиоИдентификатор : 192 (0xC0)Формат : MPEG AudioВерсия формата : Version 1Профиль формата : Layer 2Продолжительность : 28 м.Вид битрейта : ПостоянныйБитрейт : 192 Кбит/секКаналы : 2 каналаЧастота : 48,0 КГцМетод сжатия : С потерямиРазмер потока : 39,5 Мбайт (7%)

Скриншот c названием фильма

Скриншоты


Скриншоты анаморфированные


-437/419√
[teatrix.ru].t4567.torrent 
Торрент: Зарегистрирован [ 2015-10-08 00:27 ] · E3C33856CBE25681A59F8120DEB4DFE8797EBD04

Скачать .torrent

Скачать

11 KB

Статус: проверено
Скачан: 0 раз
Размер: 557 MB
terms.php



Быстрый ответ

Имя:

      
Для отправки сообщений необходимо включить JavaScript
Показать сообщения:    

Текущее время: 11-Дек 13:01

Часовой пояс: UTC + 3


Вы можете начинать темы
Вы можете отвечать на сообщения
Вы не можете редактировать свои сообщения
Вы не можете удалять свои сообщения
Вы не можете голосовать в опросах
Вы не можете прикреплять файлы к сообщениям
Вы можете скачивать файлы