Тенгиз Абуладзе - Древо желаний (Нана Джанелидзе) [2001, Россия, Грузия, документальный, художественное осмысление, DVB] DVO


Статистика раздачи [Обновить пиров]
Размер:  1.28 GB   |    Зарегистрирован:  1 год 1 месяц   |    Скачан:  1 раз

Полного источника не было: 4 месяца 14 дней

 
   
 
 
 

[Цитировать]

Тенгиз Абуладзе - Древо желаний- Страна: Россия, Грузия
Жанр: документальный, художественное осмысление
Год выпуска: 2001
Продолжительность: 00:42:57
Перевод: Профессиональный (двухголосый закадровый) (текст читают Нана Джанелидзе, Зураб Кипшидзе)
Cубтитры: нет
Режиссер: Нана Джанелидзе
В ролях: Нана Джанелидзе, Реваз Чхеидзе, Софико Чиаурели, Кахи Кавсадзе, Автандил Махарадзе
Описание: Тенгиз Абуладзе редко разрешал себя снимать. Осталось две–три видеозаписи его интервью... Об удивительном человеке и режиссере рассказывает верная ученица мастера, Нана Джанелидзе. Кому как не ей, жене его сына и матери его любимого внука, знать, каким Тенгиз Абуладзе был за кадром.
«Тенгиз Евгеньевич, вот и выпала мне удача снять о вас фильм. Я постараюсь рассказать все, чему научилась от вас, прожив рядом с вами большую часть своей жизни. Сперва как ваша студентка, затем как член вашей большой семьи. А позднее - как соавтор сценария "Покаяния". Несколько лет тому назад, когда вы покидали мир, мне казалось очень важным снять фильм о том, как вы уходите из жизни, когда вокруг бушует гражданская война, как остро вы все это переживаете. Грузию покидали мир и покой. Вас – физические и духовные силы...», – рассказывает в программе Нана Джанелидзе.
Нана Джанелидзе встретилась с людьми, хорошо знавшими Тенгиза Абуладзе: сорежиссером и другом Ревазом Чхеидзе, с которым Абуладзе пережил минуты триумфа в Канне, соавтором сценария «Мольбы» Ревазом Кваеслава, его актерами – Софико Чиаурели, Отаром Мегвинетухуцеси, Кахи Кавсадзе, Автандилом Махарадзе, операторами Ломером Ахвледиани и Михаилом Аграновичем. Сняла и записала их воспоминания, пронизанные уважением и печалью.
Прошло немало лет после смерти Тенгиза, но чувство утраты не ослабело. В фильме «Тенгиз Абуладзе. Древо желаний» сказано справедливо и горестно: «Когда такой человек уходит из жизни – его место никто не может занять».
В фильме использованы материалы Грузинского и Российского Государственных архивов кинофотодокументов, фрагменты из фильмов Тенгиза Абуладзе «Лурджа Магданы», «Чужие дети», «Ожерелье для моей любимой», рассказывается об истории их создания, при этом особое внимание уделено созданию поэтической притчи «Покаяние», составившей вместе с «Мольбой» и «Древом желания» легендарный кинотриптих Тенгиза Абуладзе. (из анонса канала "Культура")
Доп. информация: Собственная запись со спутника (канал "Время: далекое и близкое").
Сэмпл: http://multi-up.com/778878
Качество видео: DVB
Формат видео: MPEG-PS (См. при проблемах с просмотром видео)
Видео: MPEG Video 2, 720x576@768x576 (4:3), 25 fps, ~3976 kbps avg
Аудио: 48 kHz, MPEG Audio 2, 2 ch, ~192.00 kbps avg

MediaInfo

Полное имя : H:\My Torrents\[apreder]Tengiz_Abuladze_The_Tree_of_Wishes(2001)DVB.mpgФормат : MPEG-PSРазмер файла : 1,28 ГбайтПродолжительность : 42 м.Режим общего битрейта : ПеременныйОбщий поток : 4252 Кбит/сек
ВидеоИдентификатор : 224 (0xE0)Формат : MPEG VideoВерсия формата : Version 2Профиль формата : Main@MainПараметр BVOP формата : ДаПараметр матрицы формата : ВыборочнаяПараметр GOP формата : M=3, N=12Продолжительность : 42 м.Вид битрейта : ПеременныйБитрейт : 3976 Кбит/секШирина : 720 пикселейВысота : 576 пикселейСоотношение сторон : 4:3Частота кадров : 25,000 кадров/секСтандарт вещания : PALЦветовое пространство : YUVСубдискретизация насыщенности : 4:2:0Битовая глубина : 8 битТип развёртки : ЧересстрочнаяПорядок развёртки : Верхнее поле первоеМетод сжатия : С потерямиБит/(Пиксели*Кадры) : 0.383Размер потока : 1,19 Гбайт (93%)
АудиоИдентификатор : 192 (0xC0)Формат : MPEG AudioВерсия формата : Version 1Профиль формата : Layer 2Продолжительность : 42 м.Вид битрейта : ПостоянныйБитрейт : 192 Кбит/секКаналы : 2 каналаЧастота : 48,0 КГцМетод сжатия : С потерямиРазмер потока : 59,0 Мбайт (5%)

Скриншот c названием фильма

Скриншоты


Скриншоты анаморфированные


-430/412√
[teatrix.ru].t4568.torrent 
Торрент: Зарегистрирован [ 2015-10-08 00:27 ] · A9513D27D5F8FE10E98C102E81C4EF30F984D2BB

Скачать .torrent

Скачать

13 KB

Статус: проверено
Скачан: 1 раз
Размер: 1.28 GB
terms.php



Быстрый ответ

Имя:

      
Для отправки сообщений необходимо включить JavaScript
Показать сообщения:    

Текущее время: 02-Дек 21:08

Часовой пояс: UTC + 3


Вы можете начинать темы
Вы можете отвечать на сообщения
Вы не можете редактировать свои сообщения
Вы не можете удалять свои сообщения
Вы не можете голосовать в опросах
Вы не можете прикреплять файлы к сообщениям
Вы можете скачивать файлы