Уродливая красота / BBC - Ugly Beauty (Вальдемар Янушчак / Waldemar Januszczak) [2009, Великобритания, документальный, арт-хаус, концептуальное искусство, DVB] DVO (Селена интернешнл)


Статистика раздачи [Обновить пиров]
Размер:  864 MB   |    Зарегистрирован:  1 год 1 месяц   |    Скачан:  1 раз

Полного источника не было: 2 месяца 19 дней

 
   
 
 
 

[Цитировать]

Уродливая красота
BBC - Ugly Beauty- Страна: Великобритания
Жанр: документальный, арт-хаус, концептуальное искусство
Год выпуска: 2009
Продолжительность: 00:59:42
Перевод: Профессиональный (двухголосый закадровый) (компания " Селена интернешнл" по заказу канала "24ДОК")
Cубтитры: нет
Режиссер: Вальдемар Янушчак / Waldemar Januszczak
В ролях: Вальдемар Янушчак / Waldemar Januszczak, Йоко Оно / Yoko Ono
Описание: "Красота есть во всем, но не всем дано это видеть". (Конфуций)
Влиятельные арт-критики утверждают, что красота исчезает из современного искусства. Это побудило их на публикации целого цикла книг, в которых говорится, что современное искусство уже не в состоянии продемонстрировать настоящую красоту. Искусствовед Вальдемар Янушчак категорически не согласен с этим мнением. Он отправляется на поиски красоты в искусстве и находит ее в работах Дамиана Херста / Damien Hirst, Джеймса Турелла / James Turrell и Тэцуо Мияджима / Tatsuo Miyajima. (из анонса канала "24ДОК")
Доп. информация: Собственная запись со спутника (канал "24ДОК", пакет НТВ+).
Сэмпл: http://multi-up.com/778582
Качество видео: DVB
Формат видео: MPG
Видео: MPEG Video 2, 720x576@768x576 (4:3), 25 fps, ~1792 kbps avg
Аудио: 48 kHz, MPEG Audio 2, 2 ch, ~192.00 kbps avg

MediaInfo

Полное имя : H:\My Torrents\[apreder]Ugly_Beauty(2009)DVB.mpgФормат : MPEG-PSРазмер файла : 864 МбайтПродолжительность : 59 м.Режим общего битрейта : ПеременныйОбщий поток : 2024 Кбит/сек
ВидеоИдентификатор : 224 (0xE0)Формат : MPEG VideoВерсия формата : Version 2Профиль формата : Main@MainПараметр BVOP формата : ДаПараметр матрицы формата : ВыборочнаяПараметр GOP формата : M=1, N=24Продолжительность : 59 м.Вид битрейта : ПеременныйБитрейт : 1792 Кбит/секШирина : 720 пикселейВысота : 576 пикселейСоотношение сторон : 4:3Частота кадров : 25,000 кадров/секСтандарт вещания : PALЦветовое пространство : YUVСубдискретизация насыщенности : 4:2:0Битовая глубина : 8 битТип развёртки : ЧересстрочнаяПорядок развёртки : Верхнее поле первоеМетод сжатия : С потерямиБит/(Пиксели*Кадры) : 0.173Размер потока : 765 Мбайт (89%)
АудиоИдентификатор : 192 (0xC0)Формат : MPEG AudioВерсия формата : Version 1Профиль формата : Layer 2Продолжительность : 59 м.Вид битрейта : ПостоянныйБитрейт : 192 Кбит/секКаналы : 2 каналаЧастота : 48,0 КГцМетод сжатия : С потерямиРазмер потока : 82,0 Мбайт (9%)

Скриншот c названием фильма

Скриншоты


Скриншоты анаморфированные


-426/408√
[teatrix.ru].t4569.torrent 
Торрент: Зарегистрирован [ 2015-10-08 00:27 ] · 668D8091F84E7BE58CE965FC7826460EC57D1425

Скачать .torrent

Скачать

17 KB

Статус: проверено
Скачан: 1 раз
Размер: 864 MB
terms.php



Быстрый ответ

Имя:

      
Для отправки сообщений необходимо включить JavaScript
Показать сообщения:    

Текущее время: 03-Дек 14:40

Часовой пояс: UTC + 3


Вы можете начинать темы
Вы можете отвечать на сообщения
Вы не можете редактировать свои сообщения
Вы не можете удалять свои сообщения
Вы не можете голосовать в опросах
Вы не можете прикреплять файлы к сообщениям
Вы можете скачивать файлы