Ужин с Бэнкси / Banksy's Coming For Dinner (Айвэн Массоу / Ivan Massow) [2009, документальный, авангард, бурлеск, мистификация, провокация, DVB] DVO (24ДОК)


Статистика раздачи [Обновить пиров]
Размер:  983 MB   |    Зарегистрирован:  1 год 1 месяц   |    Скачан:  0 раз

Полного источника не было: Никогда

 
   
 
 
 

[Цитировать]

Ужин с Бэнкси
Banksy's Coming For Dinner- Год выпуска: 2009
Страна: Великобритания
Жанр: документальный, авангард, бурлеск, мистификация, провокация
Продолжительность: 01:00:52
Перевод: Профессиональный (двухголосый) (канал "24ДОК")
Русские субтитры: нет
Режиссер: Айвэн Массоу / Ivan Massow
В ролях: Джоан Коллинз / Joan Collins, Бэнкси / Banksy, Стивен К. Эймос / Stephen K. Amos, Тамара Бекуив / Tamara Beckwith, Саманта Блум / Sam Bloom, Пол ДеФрейтас / Paul DeFreitas, Перси Гибсон / Percy Gibson, Николас Грейс / Nicholas Grace, Энн Митчелл / Ann Mitchell, Тара Ньюли / Tara Newley
Описание: Британская актриса, продюсер, писатель и колумнист Джоан Коллинз вместе с мужем Перси Гибсоном часто устраивают званые ужины для различных известных людей в Корнбери Парк, особняке Джоан. На этот раз ей удалось пригласить к себе в гости Бэнкси - скандально известного английского андерграундного художника граффити и политического активиста и режиссёра чья личность до сих пор не установлена. Благодаря таланту художника и остро-социальной тематике своих рисунков, Бэнкси чрезвычайно популярен в Англии и за ее пределами. Самое удивительное, что он до сих пор сохраняет анонимность и скрывается от полиции. Вам представляется возможность впервые увидеть эту загадочную личность. Правда, голос его будет изменен, а лицо размыто. Тем не менее, то, что происходило в этот вечер, стоит посмотреть!
Среди участников вечера: "умный" черный комик, приверженец антиюмора, Стивен К. Эймос; британская модель и бывшая подруга Сильвестра Сталлоне и Чарли Шина Тамара Бекуив; киноактриса и певица Саманта Блум, сестра актера Орландо Блума, известная по участию в группе allSTARS; лондонский директор по кастингу Пол ДеФрейтас; актер Николас Грейс, известный по роли Энтони Бланша в сериале "Возвращение в Брайдсхед"; актриса Королевской Шекспировской Труппы, кино и телевидения Энн Митчелл; актриса и певица Тара Ньюли, дочь Джоан Коллинз.
"Все когда-нибудь нужно попробовать. Вот и я попробовал. Всё! Хватит!" (Бэнкси)

Примечание

После выхода фильма авторы признались, что это была мистификация – роль Бэнкси сыграл актер Брайан Лоуренс / Bryan Lawrence. Но, как уверяют создатели фильма, никто из участников вечеринки не знал этого. Все как раз были убеждены, что с ними настоящий Бэнкси. Устроители вечеринки пошли на определенный риск – никто не мог предположить, как будет вести себя необычный гость, ведь никто и никогда не видел его лица, и не общался с ним в реальной жизни… (The Daily Mail)
Доп. информация: Собственная запись со спутника (канал "24ДОК", пакет НТВ+). Во время разговора с Бэнкси у бильярда английские вшитые субтитры.
Участник Marbella IFF (Costa del Sol, Spain) 2009.
Качество: DVB
Формат: MPG
Видео кодек: MPEG2
Аудио кодек: MP2
Видео: MPEG Video 2, 720x576@768x576 (4:3), 25 fps, ~2020 kbps avg
Аудио: 48 kHz, MPEG Audio 2, 2 ch, ~192.00 kbps avg

MediaInfo

Полное имя : H:\My Torrents\[apreder]Banksy's_Coming_For_Dinner(2009)DVB.mpgФормат : MPEG-PSРазмер файла : 983 МбайтПродолжительность : 1 ч. 0 м.Режим общего битрейта : ПеременныйОбщий поток : 2257 Кбит/сек
ВидеоИдентификатор : 224 (0xE0)Формат : MPEG VideoВерсия формата : Version 2Профиль формата : Main@MainПараметр BVOP формата : ДаПараметр матрицы формата : ВыборочнаяПараметр GOP формата : M=2, N=24Продолжительность : 1 ч. 0 м.Вид битрейта : ПеременныйБитрейт : 2020 Кбит/секШирина : 720 пикселейВысота : 576 пикселейСоотношение сторон : 4:3Частота кадров : 25,000 кадров/секСтандарт вещания : PALЦветовое пространство : YUVСубдискретизация насыщенности : 4:2:0Битовая глубина : 8 битТип развёртки : ЧересстрочнаяПорядок развёртки : Верхнее поле первоеМетод сжатия : С потерямиБит/(Пиксели*Кадры) : 0.195Размер потока : 879 Мбайт (90%)
АудиоИдентификатор : 192 (0xC0)Формат : MPEG AudioВерсия формата : Version 1Профиль формата : Layer 2Продолжительность : 1 ч. 0 м.Вид битрейта : ПостоянныйБитрейт : 192 Кбит/секКаналы : 2 каналаЧастота : 48,0 КГцМетод сжатия : С потерямиРазмер потока : 83,6 Мбайт (9%)

Скриншоты


Скриншоты анаморфированные


-405/387√
[teatrix.ru].t4570.torrent 
Торрент: Зарегистрирован [ 2015-10-08 00:27 ] · 9A10C2A4EAEA99C8708BB15286C6EDD518F795B6

Скачать .torrent

Скачать

20 KB

Статус: проверено
Скачан: 0 раз
Размер: 983 MB
terms.php



Быстрый ответ

Имя:

      
Для отправки сообщений необходимо включить JavaScript
Показать сообщения:    

Текущее время: 06-Дек 15:13

Часовой пояс: UTC + 3


Вы можете начинать темы
Вы можете отвечать на сообщения
Вы не можете редактировать свои сообщения
Вы не можете удалять свои сообщения
Вы не можете голосовать в опросах
Вы не можете прикреплять файлы к сообщениям
Вы можете скачивать файлы