Буковски. Рожденный в это / Bukowski. Born into this (Джон Дуллаган / John Dullaghan) [2003, США, Документальный, DVDRip] VO Алексей Багичев Original Eng


Статистика раздачи [Обновить пиров]
Размер:  1.3 GB   |    Зарегистрирован:  1 год 3 месяца   |    Скачан:  0 раз

Полного источника не было: Никогда

 
   
 
 
 

[Цитировать]

Буковски. Рожденный в это / Bukowski. Born into this
Страна: США
Жанр: Документальный
Год выпуска: 2003
Продолжительность: 01:54:52
Перевод: Одноголосый закадровый Доп. инфо о переводе Алексей Багичев
Cубтитры: нет
Оригинальная аудиодорожка: английский
Режиссер: Джон Дуллаган / John Dullaghan
В ролях: Чарлз Буковски, Линда Буковски, Шон Пенн, Боно
Описание: Один из немногих, если не единственный биографический фильм о классике американской литературы - Чарльзе Буковски. Интеллектуальный алко лайфстайл и битничество как оно есть. Интервью с самим героем и с его многочисленными друзьями. Фильм пытается показать Буковски таким, каким он был на самом деле.
Сэмпл: http://multi-up.com/771112
Качество видео: DVDRip
Формат видео: AVI
Видео: 640x480 (1.33:1), 29.970 fps, DivX Codec 5.x or 6.x ~1350 kbps avg, 0.15 bit/pixel
Аудио: 48 kHz, MPEG Layer 3, 2 ch, ~128.00 kbps avg - русский
Аудио 2: 48 kHz, MPEG Layer 3, 2 ch, ~128.00 kbps avg - английский

MediaInfo

General
Complete name : D:\видео\Bukowski\Bukowski - Rus Eng.avi
Format : AVI
Format/Info : Audio Video Interleave
File size : 1.30 GiB
Duration : 1h 54mn
Overall bit rate : 1 624 Kbps
Writing application : VirtualDubMod 1.5.10.3 | www.virtualdub-fr.org || (build 2550/release)
Writing library : VirtualDubMod build 2550/release
Video
ID : 0
Format : MPEG-4 Visual
Format profile : Simple@L1
Format settings, BVOP : No
Format settings, QPel : No
Format settings, GMC : No warppoints
Format settings, Matrix : Default (H.263)
Codec ID : DX50
Codec ID/Hint : DivX 5
Duration : 1h 54mn
Bit rate : 1 351 Kbps
Width : 640 pixels
Height : 480 pixels
Display aspect ratio : 4:3
Frame rate : 29.970 fps
Resolution : 8 bits
Colorimetry : 4:2:0
Scan type : Progressive
Bits/(Pixel*Frame) : 0.147
Stream size : 1.08 GiB (83%)
Writing library : Lavc51.40.4
Audio #1
ID : 1
Format : MPEG Audio
Format version : Version 1
Format profile : Layer 3
Mode : Joint stereo
Format_Settings_ModeExtension : MS Stereo
Codec ID : 55
Codec ID/Hint : MP3
Duration : 1h 54mn
Bit rate mode : Constant
Bit rate : 128 Kbps
Channel(s) : 2 channels
Sampling rate : 48.0 KHz
Stream size : 105 MiB (8%)
Alignment : Aligned on interleaves
Interleave, duration : 33 ms (1.00 video frame)
Interleave, preload duration : 504 ms
Audio #2
ID : 2
Format : MPEG Audio
Format version : Version 1
Format profile : Layer 3
Mode : Joint stereo
Format_Settings_ModeExtension : MS Stereo
Codec ID : 55
Codec ID/Hint : MP3
Duration : 1h 54mn
Bit rate mode : Constant
Bit rate : 128 Kbps
Channel(s) : 2 channels
Sampling rate : 48.0 KHz
Stream size : 105 MiB (8%)
Alignment : Aligned on interleaves
Interleave, duration : 33 ms (1.00 video frame)
Interleave, preload duration : 504 ms

Скриншот c названием фильма

Скриншоты

[teatrix.ru].t4571.torrent 
Торрент: Зарегистрирован [ 2015-10-08 00:27 ] · 74A1BA52368BDB3F0BD921C1FF82D31462FBB524

Скачать .torrent

Скачать

14 KB

Статус: проверено
Скачан: 0 раз
Размер: 1.3 GB
terms.php



Быстрый ответ

Имя:

      
Для отправки сообщений необходимо включить JavaScript
Показать сообщения:    

Текущее время: 21-Янв 11:37

Часовой пояс: UTC + 3


Вы можете начинать темы
Вы можете отвечать на сообщения
Вы не можете редактировать свои сообщения
Вы не можете удалять свои сообщения
Вы не можете голосовать в опросах
Вы не можете прикреплять файлы к сообщениям
Вы можете скачивать файлы