Трилогия Кацци: Коянискацци, Поваккацци, Накойкацци / Qatsi trilogy: Koyaanisqatsi, Powaqqatsi, Naqoyqatsi (Годфри Реджио) [1982,1988,2002, Документальный, BDRip720p]


Статистика раздачи [Обновить пиров]
Размер:  13.65 GB   |    Зарегистрирован:  1 год 1 месяц   |    Скачан:  0 раз

Полного источника не было: Никогда

 
   
 
 
 

[Цитировать]

Трилогия Кацци: Коянискацци, Поваккацци, НакойкацциQatsi trilogy: Koyaanisqatsi, Powaqqatsi, Naqoyqatsi-
-
-Страна: США
Жанр: Документальный
Перевод: Не требуется
Русские субтитры: нет
Режиссер: Годфри Реджио
Композитор: Филип Гласс

Описание:
В 1975 году Годфри Реджио, человек, который провел 14 лет в молчании и молитвах, неожиданно пришел к идее снять фильм в абсолютно новом стиле. Он задумал взять образы из реальной жизни – эмоциональные, сырые, откровенные картины – и представить их в невербальной, нелинейной форме, создав, таким образом, своего рода киноконцерт, он задумал трилогию "Каци". В каждом из фильмов трилогии использован особый стиль: в первом фильме – "Койянискаци" – эффект ускоренного движения, чтобы заставить сознание воспринимать образы по-другому, во втором – "Поваккаци" – замедленное движение, позволяющее сфокусировать внимание на чувственных особенностях живой природы.
-
-

Коянискацци / Koyaanisqatsi

Коянискацци / Koyaanisqatsi«Until now, you've never really seen the world you live in.»-
Название: Кояанискатси
Оригинальное название: Koyaanisqatsi: Life Out of Balance
Год выпуска: 1982
Продолжительность:01:26:05
Выпущено: Santa Fe Institute for Regional Education
В ролях: Тед Коппел
Описание:

«Koyaanisqatsi» — с языка индейцев племени хопи — это безумная жизнь, беспорядочная жизнь, жизнь на грани распада, жизнь вне баланса, жизнь, требующая изменений во имя продолжения жизни…
"Коянискацци" (Koyaanisqatsi; Жизнь, выведенная из равновесия) - документальный фильм Годфри Реджио с музыкой композитора-минималиста Филипа Гласса и киносъёмками Рона Фрика. Лента содержит большое количество фрагментов, снятых по технологии замедленной киносъёмки. Фильм полностью лишён дикторского текста и актёрской речи, однако его музыкальное оформление, на которое опирается сюжет, занимает в повествовании такое же значение, как и видеоряд, и, фактически, создаёт атмосферу фильма. Это первый из трилогии фильмов "Кацци", показывающей с различных сторон взаимодействие человека и технологии. Другие две ленты трилогии: "Поваккацци" и "Накойкацци". Более десятилетия из-за лицензионных ограничений фильм "Коянискацци" не издавался, так как Филип Гласс и его ансамбль гастролировали с ним, вживую исполняя музыку прямо перед киноэкраном во время показов.
-
Качество: BDRip720p
Формат: MKV
Видео кодек: H.264
Аудио кодек: DTS
Видео: MPEG-4 AVC 1280x696(16:9), 5. 7 Mbps , 23,976 fps, High Profile 4.1, 0.270 Bits/Pixel
Аудио: DTS 5.1 ,6 ch( Front: L C R, Side: L R, LFE), 48 kHz, 1 510 Kbps, 24 bits {Instrumental}

Знаете ли вы, что...

.
• Фильм «Кояанискатси» создавался 6 лет. 3 года ушло на съемки. Остальные три года были потрачены Годфри Реджио и Филипом Глассом на написание музыки к фильму, на монтаж и на подгонку их друг к другу.
• Годфри Реджио изначально хотел пригласить Филипа Гласса в качестве композитора фильма. Он вышел на Гласса через общих знакомых, но композитор заявил: «Я не пишу музыку для фильмов». Однако после долгих уговоров и специального закрытого показа пробного монтажа фильма с использованием музыки Гласса, тот в конце концов согласился написать саундтрек к фильму. Это вылилось в первый коммерческий успех композитора, который в последствии написал музыку для всех последующих фильмов трилогии «Катси».
• Изначально Реджио хотел вставить в титры аутентичный символ, плохо поддающийся трактовке, но потом решил, что никто не поймет и не оценит.
• Филип Гласс условно разделил фильм на 12 примерно равных частей и написал для каждой индивидуальную музыкальную тему. Когда Реджио увидел и услышал конечный результат, он пришел в ужас от подобного прагматизма и заново перемонтировал фильм, чтобы картинка соответствовала звуку.
• Поначалу права на фильм принадлежали кинокомпании Фрэнсиса Форда Копполы «American Zoetrope». Когда компания обанкротилась, права перешли компании «PolyGram». Но и «Полиграм» недолго просуществовала. Сейчас права принадлежат корпорации «MGM».
• В фильм есть одна сцена, изображающая горную цепь. Она была отдана режиссеру кинокомпанией MacGillivray-Freeman Films. Это сцена, оставшаяся после съемок «Сияния» (1980).
- -

MEDIA INFO

General
Complete name :Qatsi_Trilogy_720p\1,koyaanisqatsi.1982.720p.bluray_x264.mkv
Format : Matroska
Format version : Version 2
File size : 4.37 GiB
Duration : 1h 26mn
Overall bit rate : 7 264 Kbps
Writing application : x264.exe
Writing library : mkv2rls v1.4 (date: 2011 mar 29)
Video #1
ID : 1
Format : AVC
Format/Info : Advanced Video Codec
Format profile : High@L4.1
Format settings, CABAC : Yes
Format settings, ReFrames : 5 frames
Codec ID : V_MPEG4/ISO/AVC
Duration : 1h 26mn
Bit rate : 5 757 Kbps
Width : 1 280 pixels
Height : 696 pixels
Display aspect ratio : 16:9
Frame rate : 23.976 fps
Color space : YUV
Chroma subsampling : 4:2:0
Bit depth : 8 bits
Scan type : Progressive
Bits/(Pixel*Frame) : 0.270
Stream size : 3.37 GiB (77%)
Writing library : x264 core 122 r2184 5c85e0a
Encoding settings : cabac=1 / ref=5 / deblock=1:0:0 / analyse=0x3:0x113 / me=umh / subme=8 / psy=1 / psy_rd=1.00:0.00 / mixed_ref=1 / me_range=16 / chroma_me=1 / trellis=1 / 8x8dct=1 / cqm=0 / deadzone=21,11 / fast_pskip=1 / chroma_qp_offset=-2 / threads=12 / sliced_threads=0 / nr=0 / decimate=1 / interlaced=0 / bluray_compat=0 / constrained_intra=0 / bframes=3 / b_pyramid=2 / b_adapt=2 / b_bias=0 / direct=3 / weightb=1 / open_gop=0 / weightp=2 / keyint=240 / keyint_min=24 / scenecut=40 / intra_refresh=0 / rc_lookahead=50 / rc=2pass / mbtree=1 / bitrate=5757 / ratetol=1.0 / qcomp=0.60 / qpmin=0 / qpmax=69 / qpstep=4 / cplxblur=20.0 / qblur=0.5 / ip_ratio=1.40 / aq=1:1.00
Language : English
Default : Yes
Forced : No
Audio #2
ID : 2
Format : DTS
Format/Info : Digital Theater Systems
Codec ID : A_DTS
Duration : 1h 26mn
Bit rate mode : Constant
Bit rate : 1 510 Kbps
Channel(s) : 6 channels
Channel positions : Front: L C R, Side: L R, LFE
Sampling rate : 48.0 KHz
Bit depth : 24 bits
Compression mode : Lossy
Stream size : 930 MiB (21%)
Language : English
Default : Yes
Forced : No
Menu
00:00:00.000 : en:00:00:00.000
00:03:54.234 : en:00:03:54.234
00:11:59.344 : en:00:11:59.344
00:16:27.111 : en:00:16:27.111
00:23:04.383 : en:00:23:04.383
00:26:40.349 : en:00:26:40.349
00:31:08.366 : en:00:31:08.366
00:38:00.612 : en:00:38:00.612
00:44:14.527 : en:00:44:14.527
00:48:58.936 : en:00:48:58.936
00:52:31.398 : en:00:52:31.398
00:59:22.476 : en:00:59:22.476
01:05:53.908 : en:01:05:53.908
01:08:24.309 : en:01:08:24.309
01:15:41.954 : en:01:15:41.954
01:22:16.431 : en:01:22:16.431

Скриншоты


-
-

Поваккацци / Powaqqatsi

Поваккацци / Powaqqatsi«Life in Transformation»- Название: Поваккатси
Оригинальное название: Powwaqatsi: Life in Transformation
Год выпуска: 1988
Продолжительность:01:39:44
Выпущено: Santa Fe Institute for Regional Education
В ролях: Кристи Бринкли, Дэвид Бринкли, Папа Иоанн Павел II, Дэн Рэйтер, Шерил Тигс
Описание:

"Поваккацци" (Powaqqatsi, Трансформация жизни) - вторая часть документальной кинотрилогии "Кацци" американского режиссёра Годфри Реджио. Powaqqatsi на языке индейцев Хопи значит "паразитический образ жизни", "развитие жизни". В то время как первый фильм "Коянискацци" концентрируется на современной жизни развитых стран, в "Поваккацци" повествование фокусируется на конфликте традиционного уклада жизни стран Третьего мира с новым индустриальным путём развития.Картину представляли публике Джордж Лукас и Фрэнсис Форд Коппола. Для съемок режиссер отправился путешествовать по миру, на родину развивающихся наций, которых редко увидишь на экране в любом формате. В течение шести месяцев он со своей съемочной группой побывал в 12 странах, включая Индию, Египет, Бразилию, Перу, Кению, Непал и Нигерию.
Красивое и возвышенное определение «колдовство жизни» тем более ценно и не оставляет сомнений в своей истинности, поскольку оно рождается фактически на наших глазах из вроде бы простого наблюдения за явно скудным с материальной точки зрения и даже нищим бытием малоразвитых стран далеко от современных мегаполисов. Однако это пребывание на краю света наполнено удивительным многообразием красок и таит в себе подлинные богатства неиспользованной энергии.И то, что принято называть сырьевыми ресурсами или запасами природы, в полной мере может быть отнесено и к многочисленному человеческому сообществу, пока остающемуся в унизительном положении если не рабов, то весьма дешёвой рабочей силы, которую нещадно эксплуатирует считающая себя исключительно прогрессивной «западная система» существования на Земле.
-
Качество: BDRip720p
Формат: MKV
Видео кодек: H.264
Аудио кодек: DTS
Видео: MPEG-4 AVC 1280x720p(16:9), 4.7 Mbps , 23,976 fps, High Profile 4.1, 0.216 Bits/Pixel
Аудио: DTS 5.1 ,6 ch( Front: L C R, Side: L R, LFE), 48 kHz, 1 510 Kbps, 24 bits {Instrumental}

Знаете ли вы, что...

.
Хотя в американском прокате этот фильм имел подзаголовок «Жизнь в изменении», на самом-то деле, «Поваккатси» на языке индейцев хопи означает нечто иное, что можно перевести примерно как «Колдовство жизни». Спустя пять лет после того, как произвела оглушительный эффект дебютная лента «Кояанискатси», режиссёр Годфри Реджо выпустил при финансовом содействии продюсеров Менахема Голана и Йорама Глобуса из компании «Кэннон», а также при поддержке Фрэнсиса Форда Копполы и Джорджа Лукаса вторую часть задуманной им документальной философско-поэтической трилогии о человеческой цивилизации. И в отличие от «жизни, потерявшей равновесие», на сей раз был представлен на экране не то чтобы умиротворённый взгляд на окружающую действительность, но более соответствующий природному витальному началу так называемого «третьего мира». Ведь он ещё сохранил связь с естественной и непосредственной средой обитания людей, которые словно продолжают существовать в одном тесном союзе с «первобытной реальностью» вокруг себя..
- -

MEDIA INFO

General
Complete name : Qatsi_Trilogy_720p\2,powaqqatsi.1988.720p.bluray_x264.mkv
Format : Matroska
Format version : Version 2
File size : 4.37 GiB
Duration : 1h 39mn
Overall bit rate : 6 268 Kbps
Writing application : x264.exe
Writing library : mkv2rls v1.4 (date: 2011 mar 29)
Video #1
ID : 1
Format : AVC
Format/Info : Advanced Video Codec
Format profile : High@L4.1
Format settings, CABAC : Yes
Format settings, ReFrames : 5 frames
Codec ID : V_MPEG4/ISO/AVC
Duration : 1h 39mn
Bit rate : 4 762 Kbps
Width : 1 280 pixels
Height : 720 pixels
Display aspect ratio : 16:9
Frame rate : 23.976 fps
Color space : YUV
Chroma subsampling : 4:2:0
Bit depth : 8 bits
Scan type : Progressive
Bits/(Pixel*Frame) : 0.216
Stream size : 3.23 GiB (74%)
Writing library : x264 core 122 r2184 5c85e0a
Encoding settings : cabac=1 / ref=5 / deblock=1:0:0 / analyse=0x3:0x113 / me=umh / subme=8 / psy=1 / psy_rd=1.00:0.00 / mixed_ref=1 / me_range=16 / chroma_me=1 / trellis=1 / 8x8dct=1 / cqm=0 / deadzone=21,11 / fast_pskip=1 / chroma_qp_offset=-2 / threads=12 / sliced_threads=0 / nr=0 / decimate=1 / interlaced=0 / bluray_compat=0 / constrained_intra=0 / bframes=3 / b_pyramid=2 / b_adapt=2 / b_bias=0 / direct=3 / weightb=1 / open_gop=0 / weightp=2 / keyint=240 / keyint_min=24 / scenecut=40 / intra_refresh=0 / rc_lookahead=50 / rc=2pass / mbtree=1 / bitrate=4762 / ratetol=1.0 / qcomp=0.60 / qpmin=0 / qpmax=69 / qpstep=4 / cplxblur=20.0 / qblur=0.5 / ip_ratio=1.40 / aq=1:1.00
Language : English
Default : Yes
Forced : No
Audio #2
ID : 2
Format : DTS
Format/Info : Digital Theater Systems
Codec ID : A_DTS
Duration : 1h 39mn
Bit rate mode : Constant
Bit rate : 1 510 Kbps
Channel(s) : 6 channels
Channel positions : Front: L C R, Side: L R, LFE
Sampling rate : 48.0 KHz
Bit depth : 24 bits
Compression mode : Lossy
Stream size : 1.05 GiB (24%)
Language : English
Default : Yes
Forced : No
Menu
00:00:00.000 : en:00:00:00.000
00:07:51.596 : en:00:07:51.596
00:16:33.451 : en:00:16:33.451
00:23:41.837 : en:00:23:41.837
00:31:15.791 : en:00:31:15.791
00:34:31.111 : en:00:34:31.111
00:37:25.618 : en:00:37:25.618
00:45:37.109 : en:00:45:37.109
00:48:09.053 : en:00:48:09.053
00:55:05.886 : en:00:55:05.886
00:59:16.762 : en:00:59:16.762
01:03:58.168 : en:01:03:58.168
01:10:59.922 : en:01:10:59.922
01:14:47.108 : en:01:14:47.108
01:22:32.739 : en:01:22:32.739
01:33:10.710 : en:01:33:10.710

Скриншоты


-
-

Накойкацци / Naqoyqatsi

Накойкацци / Naqoyqatsi«America is test-driving the future.»-
Название: Накойкаци
Оригинальное название: Naqoyqatsi
Год выпуска: 2002
Продолжительность:01:29:18
Выпущено: Miramax Films
В ролях: Марлон Брандо, Белла Донна, Элтон Джон, Джулия Луис-Дрейфус, Мадонна, Бхагван Мирчадани, Jack Shamblin, Стивен Содерберг, Трой Айкман, The Beatles
Описание:

Название фильма переводится с языка хопи «война, как образ жизни». Необычность этого языка в том, что он, в частности, не различает категорий времени и множественного числа. (ХОПИ - индейский народ общей численностью 6 тыс. чел, проживающий на территории США.)
В последней части трилогии – "Накойкаци", название которой означает "жизнь как война" – представляемой Стивеном Содербергом, Годфри Реджио исследует новую визуальную территорию, оказываясь среди образов продвинутых технологий и цифровой обработки, которые он называет "возрожденными образами". В отличие от предыдущих фильмов, в картине "Накойкаци" мало натурных съемок, вместо этого используется метод, названный режиссером "образ как место действия".
-
Качество: BDRip720p
Формат: MKV
Видео кодек: H.264
Аудио кодек: DTS
Видео: MPEG-4 AVC 1280x720p(16:9), 6.3 Mbps , 23,976 fps, High Profile 4.1, 0.288 Bits/Pixel
Аудио: DTS 5.1 ,6 ch( Front: L C R, Side: L R, LFE), 48 kHz, 1 510 Kbps, 24 bits {Instrumental}

Знаете ли вы, что...

.
Даже в тех редких неглупых современных кинопроизведениях, которые, как, допустим, «Матрица», выдаются за «кинематограф будущего», проявляется подмеченная выдающимся американским документалистом-философом Годфри Реджо довольно опасная подспудная идеология «технофашизма». Так называемая «подлинная реальность» (ведь слово virtual буквально означает «фактический», «действительный»), повсеместно возникающая на различных экранах — от залов кинотеатров до компьютерных мониторов, оказывается чуть ли не полной заменой истинного человеческого бытия. Мы начинаем жить в некоем эмблематическом мире, где имеем дело исключительно с символами, значками и иконками, воспринимаем действительность не напрямую, а отражённой в сложной системе деформированных зеркал. И поневоле ощущаем себя такими же пиктограммами, нарисованными образами, похищенными с помощью компьютеров идентичностями, которые размножены на бесчисленное количество смоделированных изображений-клонов..
- -

MEDIA INFO

General
Unique ID : 171008772472022493314035496827139618341 (0x80A71770D924E718A9DF75B6BD177625)
Complete name : Qatsi_Trilogy_720p\3,naqoyqatsi.2002.720p.bluray_x264.mkv
Format : Matroska
Format version : Version 2
File size : 4.91 GiB
Duration : 1h 29mn
Overall bit rate : 7 871 Kbps
Encoded date : UTC 2012-09-13 11:12:14
Writing application : mkvmerge v5.6.0 ('Kenya Kane') built on Jun 29 2012 15:01:44
Writing library : libebml v1.2.3 + libmatroska v1.3.0
Video #1
ID : 1
Format : AVC
Format/Info : Advanced Video Codec
Format profile : High@L5.1
Format settings, CABAC : Yes
Format settings, ReFrames : 8 frames
Codec ID : V_MPEG4/ISO/AVC
Duration : 1h 29mn
Bit rate : 6 360 Kbps
Width : 1 280 pixels
Height : 720 pixels
Display aspect ratio : 16:9
Frame rate : 23.976 fps
Color space : YUV
Chroma subsampling : 4:2:0
Bit depth : 8 bits
Scan type : Progressive
Bits/(Pixel*Frame) : 0.288
Stream size : 3.87 GiB (79%)
Writing library : x264 core 57 svn-720
Encoding settings : cabac=1 / ref=5 / deblock=1:0:0 / analyse=0x3:0x113 / me=umh / subme=7 / brdo=1 / mixed_ref=1 / me_range=16 / chroma_me=1 / trellis=1 / 8x8dct=1 / cqm=0 / deadzone=21,11 / chroma_qp_offset=0 / threads=6 / nr=0 / decimate=1 / mbaff=0 / bframes=3 / b_pyramid=1 / b_adapt=1 / b_bias=0 / direct=1 / wpredb=1 / bime=1 / keyint=250 / keyint_min=25 / scenecut=40(pre) / rc=2pass / bitrate=6360 / ratetol=1.0 / rceq='blurCplx^(1-qComp)' / qcomp=0.60 / qpmin=10 / qpmax=51 / qpstep=4 / cplxblur=20.0 / qblur=0.5 / ip_ratio=1.40 / pb_ratio=1.30
Default : Yes
Forced : No
Audio #2
ID : 2
Format : DTS
Format/Info : Digital Theater Systems
Codec ID : A_DTS
Duration : 1h 29mn
Bit rate mode : Constant
Bit rate : 1 510 Kbps
Channel(s) : 6 channels
Channel positions : Front: L C R, Side: L R, LFE
Sampling rate : 48.0 KHz
Bit depth : 24 bits
Compression mode : Lossy
Stream size : 965 MiB (19%)
Language : English
Default : Yes
Forced : No

Скриншоты


-
-
[teatrix.ru].t4574.torrent 
Торрент: Зарегистрирован [ 2015-10-08 00:27 ] · 4AB99849857467558F495B8ADAD467E1E3A558A8

Скачать .torrent

Скачать

69 KB

Статус: проверено
Скачан: 0 раз
Размер: 13.65 GB
terms.php



Быстрый ответ

Имя:

      
Для отправки сообщений необходимо включить JavaScript
Показать сообщения:    

Текущее время: 03-Дек 16:43

Часовой пояс: UTC + 3


Вы можете начинать темы
Вы можете отвечать на сообщения
Вы не можете редактировать свои сообщения
Вы не можете удалять свои сообщения
Вы не можете голосовать в опросах
Вы не можете прикреплять файлы к сообщениям
Вы можете скачивать файлы