Алфавит Жиля Делёза / L'abecedaire de Gilles Deleuze / L'abécédaire de Gilles Deleuze / Gilles Deleuze from A to Z (Пьер-Андре Бутан / Pierre-Andre Boutang) [1996, документальный, фильм-интервью, DVDRip-AVC]


Статистика раздачи [Обновить пиров]
Размер:  6.44 GB   |    Зарегистрирован:  1 год 2 месяца   |    Скачан:  0 раз

Полного источника не было: Никогда

 
   
 
 
 

[Цитировать]

Алфавит Жиля Делёза / L'abecedaire de Gilles Deleuze / L'abécédaire de Gilles Deleuze / Gilles Deleuze from A to Z
Год выпуска: 1996
Страна: Франция
Жанр: документальный, фильм-интервью
Продолжительность: 01:01:13+01:23:46+02:05:35+00:36:50+02:26:08
Перевод: Субтитры
Русские субтитры: есть
Режиссер: Пьер-Андре Бутан / Pierre-Andre Boutang
Описание: Серия интервью между Жилем Делёзом (Gilles Deleuze) и Клер Парне (Claire Parnet) общей длительностью семь с половиной часов была снята Пьером-Андре Бутаном (Pierre-Andre Boutang) в 1988-1989 годах специально для еженедельного тележурнала «Метрополис» (Metropolis), выходящего на французско-немецком канале «Арте» (Arte). По договорённости эти интервью следовало обнародовать только после смерти Делёза, однако они были показаны с его разрешения на канале «Арте» (первый эпизод вышел в эфир 15 января 1995 года). В конце 1994-го Делёз сказал Бутану: «В свете моего нынешнего состояния, можно считать, что я уже умер».
Чем этот видеодокумент интересен, кроме возможности удовлетворения прискорбной страсти к публичному вуайеризму, характеризующей наш век нескончаемых ток-шоу? Имеются, по крайней мере, три причины: лингвистическая, философская и межличностная.
Простое слежение за речью и движениями Делёза, в отличие от чтения его отточенных, но зачастую требовательных текстов, даёт редкую возможность услышать, как блестящий мыслитель проговаривает и разъясняет простым языком понятия, сделавшие его знаменитым. Хотя некоторые ссылки остаются неясными, эти интервью представляют экстраординарный лингвистический опыт, а отдельные эпизоды могут стать предметом обсуждения на спецкурсах для студентов и аспирантов.
Такой опыт наблюдения/слушания сочетается с погружением зрителя в мучительное многообразие «концептов», поэтому можно было бы рассмотреть возможность очевидного педагогического использования некоторых эпизодов с целью расширенния контекста чтения и обсуждения различных работ Делёза и Делёза – Гваттари.
Наконец, отношения между Делёзом и Клер Парне, и в целом между философом и его студентами и соратниками, отчётливо демонстрируют живой человеческий лик философской практики. Лишь иногда отражаясь в зеркале позади Делёза, Клер Парне обращается к нему с вызывающими, даже потенциально раздражающими вопросами и суждениями, но в их обменах и в часто несерьёзных ответах Делёза всегда чувствуется любовь.
Эти интервью, на мой взгляд, полны той «радости», которую Делёз всю свою жизнь получал от преподавания и общения со студентами, от чтения и мышления.
Чарльз Дж. Стиваль (Charles J. Stivale)

Содержание «Алфавита»

A как в Animal (Животное) Начало – 1 файл, 00:02:16
B как в Boisson (Выпивка) Начало – 1 файл, 00:23:34
C как в Culture (Культура) Начало – 1 файл, 00:35:18
D как в Desir (Желание) Начало – 2 файл, 00:03:01
E как в Enfance (Детство) Начало – 2 файл, 00:30:57
F как в Fidelite (Верность) Начало – 2 файл, 01:07:23
G как в Gauche (Левый) Начало – 3 файл, 00:01:36
H как в Histoire de la philosophie (История философии) Начало – 3 файл, 00:27:08
I как в Idee (Идея) Начало – 3 файл, 01:09:16
J как в Joie (Радость) Начало – 3 файл, 01:25:04
K как в Kant (Кант) Начало – 3 файл, 01:44:54
L как в Litterature (Литература) Начало – 3 файл, 01:58:22
М как в Maladie (Болезнь) Начало – 4 файл, 00:08:02
N как в Neurologie (Неврология) Начало – 5 файл, 00:01:04
O как в Opera (Опера) Начало – 5 файл, 00:21:11
P как в Professeur (Профессор) Начало – 5 файл, 00:42:41
Q как в Question (Вопрос) Начало – 5 файл, 01:13:20
R как в Resistance (Сопротивление) Начало – 5 файл, 01:26:14
S как в Style (Стиль) Начало – 5 файл, 01:42:54
T как в Tennis (Теннис) Начало – 5 файл, 01:56:14
U как в Un (Единое) Начало – 5 файл, 02:08:22
V как в Voyage (Путешествие) Начало – 5 файл, 02:12:53
W как в Wittgenstein (Витгенштейн) Начало – 5 файл, 02:20:17
Z как в Zigzag (Зигзаг) Начало – 5 файл, 02:21:33
Доп. информация: Перевод: Д. А. Ардамацкая (литеры A, B, C – под редакцией Артёма Радеева), Лиза Степанян (литеры D, E, H), Глеб Коломиец (литеры F, G, S, T, U, V, W, Z), Лина Медведева (литеры I, J, K), Максим Карпицкий (литеры L, M), Влад Лазарев (литеры N, O, P), Денис Куренов (литеры Q, R); ретайминг, общая редакция и подготовка субтитров – Алексей Тютькин.
Файлы взяты с Карагарги – огромная благодарность Kareal!Качество: DVDRip
Формат: MKV
Видео кодек: AVC
Аудио кодек: AC3
Видео: H.264 at 1838 kbps 640x480 at 25 fps
Аудио: AC-3 at 192.0 kbps, 2 ch, 48 kHz

Отчёты MediaInfoЧасть 1

Часть 1
Формат : Matroska
Размер файла : 890 Мбайт
Продолжительность : 1 ч. 1 м.
Общий поток : 2032 Кбит/сек
Дата кодирования : UTC 2012-09-03 13:00:36
Программа кодирования : mkvmerge v2.9.7 ('Tenderness') built on Jul 1 2009 18:43:35
Библиотека кодирования : libebml v0.7.7 + libmatroska v0.8.1
Видео
Идентификатор : 1
Формат : AVC
Формат/Информация : Advanced Video Codec
Профиль формата : High@L3.2
Параметр CABAC формата : Да
Параметр ReFrames формата : 16 кадры
Идентификатор кодека : V_MPEG4/ISO/AVC
Продолжительность : 1 ч. 1 м.
Битрейт : 1838 Кбит/сек
Ширина : 640 пикс.
Высота : 480 пикс.
Соотношение сторон : 4:3
Частота кадров : 23,976 кадр/сек
Цветовое пространство : YUV
Подвыборка цветности : 4:2:0
Битовая глубина : 8 бит
Тип развёртки : Прогрессивная
Бит/(Пиксели*Кадры) : 0.250
Размер потока : 788 Мбайт (89%)
Библиотека кодирования : x264 core 120 r2164 da19765
Настройки программы : cabac=1 / ref=16 / deblock=1:-2:-1 / analyse=0x3:0x113 / me=esa / subme=7 / psy=1 / psy_rd=1.00:0.00 / mixed_ref=1 / me_range=16 / chroma_me=1 / trellis=2 / 8x8dct=1 / cqm=0 / deadzone=21,11 / fast_pskip=0 / chroma_qp_offset=-2 / threads=6 / sliced_threads=0 / nr=0 / decimate=0 / interlaced=0 / bluray_compat=0 / constrained_intra=0 / bframes=16 / b_pyramid=2 / b_adapt=1 / b_bias=0 / direct=3 / weightb=1 / open_gop=0 / weightp=2 / keyint=240 / keyint_min=23 / scenecut=40 / intra_refresh=0 / rc_lookahead=40 / rc=2pass / mbtree=1 / bitrate=1838 / ratetol=1.0 / qcomp=0.60 / qpmin=0 / qpmax=69 / qpstep=4 / cplxblur=20.0 / qblur=0.5 / ip_ratio=1.40 / aq=1:1.00
Аудио
Идентификатор : 2
Формат : AC-3
Формат/Информация : Audio Coding 3
Расширение режима : CM (complete main)
Идентификатор кодека : A_AC3
Продолжительность : 1 ч. 1 м.
Вид битрейта : Постоянный
Битрейт : 192 Кбит/сек
Канал(ы) : 2 канала(ов)
Расположение каналов : Front: L R
Частота : 48,0 КГц
Битовая глубина : 16 бит
Метод сжатия : С потерями
Размер потока : 84,1 Мбайт (9%)
Язык : French
Текст
Идентификатор : 3
Формат : UTF-8
Идентификатор кодека : S_TEXT/UTF8
Идентификатор кодека/Информация : UTF-8 Plain Text
Язык : Russian

Часть 2

Формат : Matroska
Размер файла : 1,19 Гбайт
Продолжительность : 1 ч. 23 м.
Общий поток : 2032 Кбит/сек
Дата кодирования : UTC 2012-09-03 17:41:13
Программа кодирования : mkvmerge v2.9.7 ('Tenderness') built on Jul 1 2009 18:43:35
Библиотека кодирования : libebml v0.7.7 + libmatroska v0.8.1
Видео
Идентификатор : 2
Формат : AVC
Формат/Информация : Advanced Video Codec
Профиль формата : High@L3.2
Параметр CABAC формата : Да
Параметр ReFrames формата : 16 кадры
Идентификатор кодека : V_MPEG4/ISO/AVC
Продолжительность : 1 ч. 23 м.
Битрейт : 1838 Кбит/сек
Ширина : 640 пикс.
Высота : 480 пикс.
Соотношение сторон : 4:3
Частота кадров : 23,976 кадр/сек
Цветовое пространство : YUV
Подвыборка цветности : 4:2:0
Битовая глубина : 8 бит
Тип развёртки : Прогрессивная
Бит/(Пиксели*Кадры) : 0.250
Размер потока : 1,05 Гбайт (89%)
Библиотека кодирования : x264 core 120 r2164 da19765
Настройки программы : cabac=1 / ref=16 / deblock=1:-2:-1 / analyse=0x3:0x113 / me=esa / subme=7 / psy=1 / psy_rd=1.00:0.00 / mixed_ref=1 / me_range=16 / chroma_me=1 / trellis=2 / 8x8dct=1 / cqm=0 / deadzone=21,11 / fast_pskip=0 / chroma_qp_offset=-2 / threads=6 / sliced_threads=0 / nr=0 / decimate=0 / interlaced=0 / bluray_compat=0 / constrained_intra=0 / bframes=16 / b_pyramid=2 / b_adapt=1 / b_bias=0 / direct=3 / weightb=1 / open_gop=0 / weightp=2 / keyint=240 / keyint_min=23 / scenecut=40 / intra_refresh=0 / rc_lookahead=40 / rc=2pass / mbtree=1 / bitrate=1838 / ratetol=1.0 / qcomp=0.60 / qpmin=0 / qpmax=69 / qpstep=4 / cplxblur=20.0 / qblur=0.5 / ip_ratio=1.40 / aq=1:1.00
Аудио
Идентификатор : 1
Формат : AC-3
Формат/Информация : Audio Coding 3
Расширение режима : CM (complete main)
Идентификатор кодека : A_AC3
Продолжительность : 1 ч. 23 м.
Вид битрейта : Постоянный
Битрейт : 192 Кбит/сек
Канал(ы) : 2 канала(ов)
Расположение каналов : Front: L R
Частота : 48,0 КГц
Битовая глубина : 16 бит
Метод сжатия : С потерями
Размер потока : 115 Мбайт (9%)
Язык : French
Текст
Идентификатор : 3
Формат : UTF-8
Идентификатор кодека : S_TEXT/UTF8
Идентификатор кодека/Информация : UTF-8 Plain Text
Язык : Russian

Часть 3

Формат : Matroska
Размер файла : 1,78 Гбайт
Продолжительность : 2 ч. 5 м.
Общий поток : 2032 Кбит/сек
Дата кодирования : UTC 2012-09-05 15:00:21
Программа кодирования : mkvmerge v2.9.7 ('Tenderness') built on Jul 1 2009 18:43:35
Библиотека кодирования : libebml v0.7.7 + libmatroska v0.8.1
Видео
Идентификатор : 2
Формат : AVC
Формат/Информация : Advanced Video Codec
Профиль формата : High@L3.2
Параметр CABAC формата : Да
Параметр ReFrames формата : 16 кадры
Параметры GOP формата : M=11, N=12
Идентификатор кодека : V_MPEG4/ISO/AVC
Продолжительность : 2 ч. 5 м.
Битрейт : 1838 Кбит/сек
Ширина : 640 пикс.
Высота : 480 пикс.
Соотношение сторон : 4:3
Частота кадров : 23,976 кадр/сек
Цветовое пространство : YUV
Подвыборка цветности : 4:2:0
Битовая глубина : 8 бит
Тип развёртки : Прогрессивная
Бит/(Пиксели*Кадры) : 0.250
Размер потока : 1,58 Гбайт (89%)
Библиотека кодирования : x264 core 120 r2164 da19765
Настройки программы : cabac=1 / ref=16 / deblock=1:-2:-1 / analyse=0x3:0x113 / me=esa / subme=7 / psy=1 / psy_rd=1.00:0.00 / mixed_ref=1 / me_range=16 / chroma_me=1 / trellis=2 / 8x8dct=1 / cqm=0 / deadzone=21,11 / fast_pskip=0 / chroma_qp_offset=-2 / threads=6 / sliced_threads=0 / nr=0 / decimate=0 / interlaced=0 / bluray_compat=0 / constrained_intra=0 / bframes=16 / b_pyramid=2 / b_adapt=1 / b_bias=0 / direct=3 / weightb=1 / open_gop=0 / weightp=2 / keyint=240 / keyint_min=23 / scenecut=40 / intra_refresh=0 / rc_lookahead=40 / rc=2pass / mbtree=1 / bitrate=1838 / ratetol=1.0 / qcomp=0.60 / qpmin=0 / qpmax=69 / qpstep=4 / cplxblur=20.0 / qblur=0.5 / ip_ratio=1.40 / aq=1:1.00
Аудио
Идентификатор : 1
Формат : AC-3
Формат/Информация : Audio Coding 3
Расширение режима : CM (complete main)
Идентификатор кодека : A_AC3
Продолжительность : 2 ч. 5 м.
Вид битрейта : Постоянный
Битрейт : 192 Кбит/сек
Канал(ы) : 2 канала(ов)
Расположение каналов : Front: L R
Частота : 48,0 КГц
Битовая глубина : 16 бит
Метод сжатия : С потерями
Размер потока : 172 Мбайт (9%)
Язык : French
Текст
Идентификатор : 3
Формат : UTF-8
Идентификатор кодека : S_TEXT/UTF8
Идентификатор кодека/Информация : UTF-8 Plain Text
Язык : Russian

Часть 4

Формат : Matroska
Размер файла : 535 Мбайт
Продолжительность : 36 м.
Общий поток : 2032 Кбит/сек
Дата кодирования : UTC 2012-09-05 17:57:18
Программа кодирования : mkvmerge v2.9.7 ('Tenderness') built on Jul 1 2009 18:43:35
Библиотека кодирования : libebml v0.7.7 + libmatroska v0.8.1
Видео
Идентификатор : 2
Формат : AVC
Формат/Информация : Advanced Video Codec
Профиль формата : High@L3.2
Параметр CABAC формата : Да
Параметр ReFrames формата : 16 кадры
Параметры GOP формата : M=1, N=4
Идентификатор кодека : V_MPEG4/ISO/AVC
Продолжительность : 36 м.
Битрейт : 1838 Кбит/сек
Ширина : 640 пикс.
Высота : 480 пикс.
Соотношение сторон : 4:3
Частота кадров : 23,976 кадр/сек
Цветовое пространство : YUV
Подвыборка цветности : 4:2:0
Битовая глубина : 8 бит
Тип развёртки : Прогрессивная
Бит/(Пиксели*Кадры) : 0.250
Размер потока : 474 Мбайт (89%)
Библиотека кодирования : x264 core 120 r2164 da19765
Настройки программы : cabac=1 / ref=16 / deblock=1:-2:-1 / analyse=0x3:0x113 / me=esa / subme=7 / psy=1 / psy_rd=1.00:0.00 / mixed_ref=1 / me_range=16 / chroma_me=1 / trellis=2 / 8x8dct=1 / cqm=0 / deadzone=21,11 / fast_pskip=0 / chroma_qp_offset=-2 / threads=6 / sliced_threads=0 / nr=0 / decimate=0 / interlaced=0 / bluray_compat=0 / constrained_intra=0 / bframes=16 / b_pyramid=2 / b_adapt=1 / b_bias=0 / direct=3 / weightb=1 / open_gop=0 / weightp=2 / keyint=240 / keyint_min=23 / scenecut=40 / intra_refresh=0 / rc_lookahead=40 / rc=2pass / mbtree=1 / bitrate=1838 / ratetol=1.0 / qcomp=0.60 / qpmin=0 / qpmax=69 / qpstep=4 / cplxblur=20.0 / qblur=0.5 / ip_ratio=1.40 / aq=1:1.00
Аудио
Идентификатор : 1
Формат : AC-3
Формат/Информация : Audio Coding 3
Расширение режима : CM (complete main)
Идентификатор кодека : A_AC3
Продолжительность : 36 м.
Вид битрейта : Постоянный
Битрейт : 192 Кбит/сек
Канал(ы) : 2 канала(ов)
Расположение каналов : Front: L R
Частота : 48,0 КГц
Битовая глубина : 16 бит
Метод сжатия : С потерями
Размер потока : 50,6 Мбайт (9%)
Язык : French
Текст
Идентификатор : 3
Формат : UTF-8
Идентификатор кодека : S_TEXT/UTF8
Идентификатор кодека/Информация : UTF-8 Plain Text
Язык : Russian

Часть 5

Формат : Matroska
Размер файла : 2,07 Гбайт
Продолжительность : 2 ч. 26 м.
Общий поток : 2032 Кбит/сек
Дата кодирования : UTC 2012-09-07 06:24:03
Программа кодирования : mkvmerge v2.9.7 ('Tenderness') built on Jul 1 2009 18:43:35
Библиотека кодирования : libebml v0.7.7 + libmatroska v0.8.1
Видео
Идентификатор : 2
Формат : AVC
Формат/Информация : Advanced Video Codec
Профиль формата : High@L3.0
Параметр CABAC формата : Да
Параметр ReFrames формата : 4 кадры
Идентификатор кодека : V_MPEG4/ISO/AVC
Продолжительность : 2 ч. 26 м.
Битрейт : 1838 Кбит/сек
Ширина : 640 пикс.
Высота : 480 пикс.
Соотношение сторон : 4:3
Частота кадров : 23,976 кадр/сек
Цветовое пространство : YUV
Подвыборка цветности : 4:2:0
Битовая глубина : 8 бит
Тип развёртки : Прогрессивная
Бит/(Пиксели*Кадры) : 0.250
Размер потока : 1,84 Гбайт (89%)
Библиотека кодирования : x264 core 120 r2164 da19765
Настройки программы : cabac=1 / ref=3 / deblock=1:-2:-1 / analyse=0x3:0x113 / me=hex / subme=7 / psy=1 / psy_rd=1.00:0.00 / mixed_ref=1 / me_range=16 / chroma_me=1 / trellis=1 / 8x8dct=1 / cqm=0 / deadzone=21,11 / fast_pskip=1 / chroma_qp_offset=-2 / threads=6 / sliced_threads=0 / nr=0 / decimate=0 / interlaced=0 / bluray_compat=0 / constrained_intra=0 / bframes=3 / b_pyramid=2 / b_adapt=1 / b_bias=0 / direct=1 / weightb=1 / open_gop=0 / weightp=2 / keyint=240 / keyint_min=23 / scenecut=40 / intra_refresh=0 / rc_lookahead=40 / rc=2pass / mbtree=1 / bitrate=1838 / ratetol=1.0 / qcomp=0.60 / qpmin=0 / qpmax=69 / qpstep=4 / cplxblur=20.0 / qblur=0.5 / ip_ratio=1.40 / aq=1:1.00
Аудио
Идентификатор : 1
Формат : AC-3
Формат/Информация : Audio Coding 3
Расширение режима : CM (complete main)
Идентификатор кодека : A_AC3
Продолжительность : 2 ч. 26 м.
Вид битрейта : Постоянный
Битрейт : 192 Кбит/сек
Канал(ы) : 2 канала(ов)
Расположение каналов : Front: L R
Частота : 48,0 КГц
Битовая глубина : 16 бит
Метод сжатия : С потерями
Размер потока : 201 Мбайт (9%)
Язык : French
Текст
Идентификатор : 3
Формат : UTF-8
Идентификатор кодека : S_TEXT/UTF8
Идентификатор кодека/Информация : UTF-8 Plain Text
Язык : Russian

Фрагменты субтитров

Часть 1
313
00:24:25,730 --> 00:24:30,735
Но я понимаю,
что с выпивкой всё непросто,
314
00:24:30,735 --> 00:24:34,973
потому что у каждого
есть свои любимые напитки.
315
00:24:34,973 --> 00:24:39,411
Но в случае алкоголика -
это вопрос количества.
316
00:24:39,411 --> 00:24:42,581
Что же это за вопрос количества?
317
00:24:42,581 --> 00:24:46,818
С наркоманами или алкоголиками
происходит такая вещь:
318
00:24:46,818 --> 00:24:49,654
каждый считает себя
хозяином положения,
319
00:24:49,654 --> 00:24:53,158
говорит, что может завязать
в любой момент. Мы смеёмся над ними,
320
00:24:53,158 --> 00:24:57,162
потому что не понимаем,
что они хотят этим сказать.
321
00:24:57,162 --> 00:25:00,398
У меня об этом свежие воспоминания,
322
00:25:00,398 --> 00:25:03,835
и я-то знаю, что люди, которые пьют,
отлично всё понимают.
323
00:25:03,835 --> 00:25:10,968
Самое главное в выпивке -
это последний стакан.
324
00:25:12,344 --> 00:25:15,814
Выпивка - это стремление
325
00:25:15,814 --> 00:25:21,119
к последнему стакану.
Вот что интересно.
326
00:25:21,119 --> 00:25:22,916
Это всегда предел?
327
00:25:23,288 --> 00:25:28,692
Что такое предел?
Это сложный вопрос.
328
00:25:29,728 --> 00:25:34,222
Иными словами, алкоголик - это тот,
кто непрерывно бросает пить.
329
00:25:35,333 --> 00:25:42,173
Тот, кто не перестаёт выпивать свой
последний стакан. Что это означает?
330
00:25:42,173 --> 00:25:48,113
Это похоже
на прекрасное выражение Пеги:
331
00:25:48,113 --> 00:25:52,851
"Это не последняя кувшинка
повторяет первую -
332
00:25:52,851 --> 00:25:56,588
это первая кувшинка повторяет
все остальные и последнюю".
333
00:25:56,588 --> 00:26:02,561
Так вот, этот первый стакан повторяет
последний, и только он имеет значение.
Часть 2
714
00:52:09,025 --> 00:52:11,595
Это была огромная тоска,
как будто он хотел сказать:
715
00:52:11,595 --> 00:52:13,964
"Господи, что я здесь делаю?"
716
00:52:13,964 --> 00:52:19,369
В то время как Виаль, которого
я так любил, завершал свою карьеру,
717
00:52:19,369 --> 00:52:24,374
тогда я с ним очень сблизился, очень.
718
00:52:24,374 --> 00:52:26,009
Так как мы жили не очень далеко
друг от друга,
719
00:52:26,009 --> 00:52:28,745
мы обычно ходили вместе
в лицей и возвращались домой,
720
00:52:28,745 --> 00:52:32,442
но мы никогда не уставали
от наших бесед, от...
721
00:52:33,183 --> 00:52:39,315
Тогда я понял, что займусь философией
или же не буду делать вообще ничего.
722
00:52:39,856 --> 00:52:41,024
С самого первого курса?
723
00:52:41,024 --> 00:52:46,997
Да, да. Как будто, если...
Когда я узнал об экзистенции,
724
00:52:46,997 --> 00:52:51,268
о том, что есть некоторые
странности, называемые "концептами",
725
00:52:51,268 --> 00:52:53,670
на меня это произвело такой эффект,
какой на других производит
726
00:52:53,670 --> 00:52:57,641
встреча с героями
великолепного романа.
727
00:52:57,641 --> 00:53:01,678
- Боже, как же я хотел узнать о...
- ...например, графе Монте-Кристо?
728
00:53:01,678 --> 00:53:05,515
...о Шарлюсе... или, не знаю,
о каком-нибудь знаменитом персонаже,
729
00:53:05,515 --> 00:53:09,392
о Вотрене, о ком-либо ещё,
о Евгении Гранде.
730
00:53:09,748 --> 00:53:12,543
Когда я узнал всё это...
Не знаю,
731
00:53:12,656 --> 00:53:20,096
даже то, что Платон называет "Идеей",
показалось мне таким ярким,
732
00:53:20,096 --> 00:53:27,771
живым, как...
Я знал - это было моим.
733
00:53:27,771 --> 00:53:31,041
И ты сразу же преуспел,
ты был лучшим?
734
00:53:31,041 --> 00:53:34,377
Ах, да. С тех пор у меня больше
не было трудностей в школе.
Часть 3
1005
01:06:57,013 --> 01:07:02,018
В то время, где-то в 1968 году
и даже раньше,
1006
01:07:02,018 --> 01:07:06,978
когда все изучали Маркса
и читали Райха, не было ли это
1007
01:07:07,456 --> 01:07:10,559
довольно провокационным -
обращаться к Ницше,
1008
01:07:10,559 --> 01:07:13,929
которого тогда подозревали
в фашизме,
1009
01:07:13,929 --> 01:07:17,233
а также говорить
о Спинозе и теле,
1010
01:07:17,233 --> 01:07:21,003
когда все без конца
проповедовали Райха?
1011
01:07:21,003 --> 01:07:26,305
Не была ли история философии
для тебя маленькой провокацией?
1012
01:07:29,645 --> 01:07:32,341
Не было ли это провокацией?
1013
01:07:33,282 --> 01:07:36,252
Нет, но это полностью
связано с тем,
1014
01:07:36,252 --> 01:07:39,949
что мы с тобой обсуждали,
это почти тот же самый вопрос,
1015
01:07:40,990 --> 01:07:45,428
потому что то, что я искал,
1016
01:07:45,428 --> 01:07:48,130
и даже то, что я искал
вместе с Феликсом,
1017
01:07:48,130 --> 01:07:54,170
было каким-то подлинно имманентным
измерением бессознательного.
1018
01:07:54,170 --> 01:07:56,505
Например, психоанализ
1019
01:07:56,505 --> 01:08:04,694
полон трансцендентных элементов -
закон, отец, мать - всё это.
1020
01:08:04,733 --> 01:08:07,365
А вот поле имманентности,
1021
01:08:07,416 --> 01:08:10,820
которое позволило мне
определить бессознательное,
1022
01:08:10,820 --> 01:08:12,555
было, вероятно,
той областью, в которой
1023
01:08:12,555 --> 01:08:15,691
Спиноза смог продвинуться
дальше всех, -
1024
01:08:15,691 --> 01:08:17,793
туда, куда никто не проходил
и, возможно,
1025
01:08:17,793 --> 01:08:22,498
где был также и Ницше -
дальше всех остальных.
Часть 4
319
00:20:39,905 --> 00:20:44,676
Потому что тебе нравится еда,
которая, кажется, приносит
320
00:20:44,676 --> 00:20:49,147
силу и жизненность - например,
костный мозг или лангуст.
321
00:20:49,147 --> 00:20:52,951
У тебя особенное отношение к еде,
поскольку ты не любишь есть.
322
00:20:52,951 --> 00:20:58,123
Это так. Для меня есть - это самое...
323
00:20:58,123 --> 00:21:02,283
Если бы я попробовал описать
самое характерное качество еды,
324
00:21:02,324 --> 00:21:07,499
для меня это была бы скука.
Это самое скучное занятие в мире.
325
00:21:07,499 --> 00:21:11,036
Выпивка, это была литера "B",
мы с этим уже разобрались,
326
00:21:11,036 --> 00:21:14,740
но выпивка - это нечто
необычайно интересное,
327
00:21:14,740 --> 00:21:19,211
а еда никогда меня не интересовала,
мне это смертельно скучно.
328
00:21:19,211 --> 00:21:22,414
Так что, еда сама по себе...
329
00:21:22,414 --> 00:21:26,718
Но есть с кем-то, кто мне нравится, -
это всё изменяет,
330
00:21:26,718 --> 00:21:31,523
но это не улучшает еду,
а просто помогает мне её переносить,
331
00:21:31,523 --> 00:21:36,483
делает это менее скучным,
даже если не разговаривать.
332
00:21:38,230 --> 00:21:42,834
Но что касается того, чтобы есть
в одиночку... У многих людей
333
00:21:42,834 --> 00:21:44,469
то же самое - все говорят,
что есть в одиночку - это скучно,
334
00:21:44,469 --> 00:21:46,104
и это доказывает, как скучно есть,
335
00:21:46,104 --> 00:21:52,110
раз большинство людей признаёт,
что есть в одиночку отвратительно.
336
00:21:52,110 --> 00:21:56,381
Несмотря на это, есть и то,
чем я действительно наслаждаюсь -
337
00:21:56,381 --> 00:21:57,886
это особенные вещи,
338
00:21:57,902 --> 00:22:01,105
если судить по тому, что они
вызывают всеобщее отвращение...
339
00:22:01,987 --> 00:22:05,324
Но, в конце концов, я не выношу,
когда другие едят сыр...
Часть 5
1201
01:18:49,458 --> 01:18:53,929
Вот что такое искусство
вопросов и проблем,
1202
01:18:53,929 --> 01:18:58,366
и я полагаю, что оно бы могло
появиться на телевидении
1203
01:18:58,366 --> 01:19:03,099
или в других медиа, но это был бы
крайне специальный формат передачи,
1204
01:19:03,171 --> 01:19:06,541
в основе которой положена
история проблем и вопросов.
1205
01:19:06,541 --> 01:19:12,047
В своих повседневных
разговорах, как и в СМИ,
1206
01:19:12,047 --> 01:19:15,083
люди остаются на уровне опросов.
1207
01:19:15,083 --> 01:19:17,719
Стоит только взглянуть на...
Я могу обратиться...
1208
01:19:17,719 --> 01:19:20,489
Конечно, потому что это покажут
только после моей смерти -
1209
01:19:20,489 --> 01:19:23,959
к шоу "Час истины". В нём нет
никаких истин, оно полностью
1210
01:19:23,959 --> 01:19:28,663
состоит из опросов. "Мадам Вайль,
вы верите в Европу?". "Да...".
1211
01:19:28,663 --> 01:19:31,333
Что это значит: "Верите в Европу?"
Было бы интересно,
1212
01:19:31,333 --> 01:19:34,736
если бы кого-то спросили:
"Какова проблема Европы?"
1213
01:19:34,736 --> 01:19:38,273
Проблема Европы, хорошо,
я скажу тебе об этом,
1214
01:19:38,273 --> 01:19:41,343
так я смогу выразить своё
предостережение.
1215
01:19:41,343 --> 01:19:44,913
Как и в случае с Китаем,
они постоянно думают о подготовке
1216
01:19:44,913 --> 01:19:47,182
к объединению Европы,
приведению её
1217
01:19:47,182 --> 01:19:49,251
к единому стандарту,
1218
01:19:49,251 --> 01:19:51,319
опрашивают друг друга об этом,
1219
01:19:51,319 --> 01:19:54,489
о том, как унифицировать
систему страхования и так далее.
1220
01:19:54,489 --> 01:19:58,326
А потом на площадь Согласия
выходит миллион человек.
1221
01:19:58,326 --> 01:20:01,530
Отовсюду - из Голландии,
Германии и так далее; все их опросы
1222
01:20:01,530 --> 01:20:04,566
никак не могут помочь
контролировать происходящее.

Скриншоты Часть 1




 Часть 2



 Часть 3



 Часть 4



 Часть 5



[teatrix.ru].t4575.torrent 
Торрент: Зарегистрирован [ 2015-10-08 00:27 ] · 4DC083DE2F6B229864A92297825797A60484FFB7

Скачать .torrent

Скачать

65 KB

Статус: проверено
Скачан: 0 раз
Размер: 6.44 GB
terms.php



Быстрый ответ

Имя:

      
Для отправки сообщений необходимо включить JavaScript
Показать сообщения:    

Текущее время: 11-Дек 14:58

Часовой пояс: UTC + 3


Вы можете начинать темы
Вы можете отвечать на сообщения
Вы не можете редактировать свои сообщения
Вы не можете удалять свои сообщения
Вы не можете голосовать в опросах
Вы не можете прикреплять файлы к сообщениям
Вы можете скачивать файлы