Вечный лес / Ewiger Wald (Ханс Спрингер, Рольф фон Соньевски-Ямровски / Hanns Springer, Rolf von Sonjevski-Jamrowski) [1936, Германия, Документальный, пропаганда, VHSRip] 1111111... Sub Rus + Original Ger


Статистика раздачи [Обновить пиров]
Размер:  1.05 GB   |    Зарегистрирован:  1 год 2 месяца   |    Скачан:  0 раз

Полного источника не было: Никогда

 
   
 
 
 

[Цитировать]

Вечный лес / Ewiger Wald
Страна: Германия
Жанр: Документальный, пропаганда
Год выпуска: 1936
Продолжительность: 00:54:17
Перевод: Субтитры Доп. инфо о переводе 1111111...
Cубтитры: русские
Оригинальная аудиодорожка: немецкий
Режиссер: Ханс Спрингер, Рольф фон Соньевски-Ямровски / Hanns Springer, Rolf von Sonjevski-Jamrowski
В ролях: Гюнтер Хаданк (Günther Hadank), Хайнц Херкоммер (Heinz Herkommer)
Описание: Ранний германский пропагандистский фильм, в котором затрагивается не сколько тема нацизма, сколь мотив единства человека с природой и объединения народного духа перед лицом беды.
Диалогов нет, читают стихи под музыку.
Доп. информация: http://www.imdb.com/title/tt0273201/
Качество очень скудно (VHSrip записи с телеканала), но это лучшее, что есть в сети.
Сэмпл: http://multi-up.com/755062
Качество видео: VHSRip
Формат видео: MPG
Видео: Format : MPEG Video Bit rate : 2 520 Kbps Width : 480 pixels Height : 576 pixels Display aspect ratio : 4:3 Frame rate : 25.000 fps
Аудио: Format : MPEG Audio Format version : Version 1 Format profile : Layer 2 Bit rate mode : Constant Bit rate : 224 Kbps Channel(s) : 2 channels
Формат субтитров: softsub (SRT)

MediaInfo

ewiger wald aka Enchanted Forest (1936).mpg
Format : MPEG-PS
File size : 1.05 GiB
Duration : 54mn 19s
Overall bit rate : 2 772 Kbps
Video #224
ID : 224 (0xE0)
Format : MPEG Video
Format version : Version 2
Format profile : Main@Main
Format settings, BVOP : Yes
Format settings, Matrix : Custom
Format settings, GOP : M=3, N=15
Duration : 54mn 19s
Bit rate mode : Variable
Bit rate : 2 520 Kbps
Width : 480 pixels
Height : 576 pixels
Display aspect ratio : 4:3
Frame rate : 25.000 fps
Color space : YUV
Chroma subsampling : 4:2:0
Bit depth : 8 bits
Scan type : Interlaced
Scan order : Bottom Field First
Compression mode : Lossy
Bits/(Pixel*Frame) : 0.365
Stream size : 969 MiB (90%)
Audio #192
ID : 192 (0xC0)
Format : MPEG Audio
Format version : Version 1
Format profile : Layer 2
Duration : 54mn 19s
Bit rate mode : Constant
Bit rate : 224 Kbps
Channel(s) : 2 channels
Sampling rate : 44.1 KHz
Compression mode : Lossy
Stream size : 87.0 MiB (8%)

Скриншот c названием фильма

Скриншоты






Фрагмент субтитров

7
00:09:53,124 --> 00:09:55,930
Вечный лес
8
00:09:56,050 --> 00:09:58,506
Вечный народ
9
00:10:00,458 --> 00:10:04,879
Дерево живое, как вы и я
10
00:10:05,843 --> 00:10:08,755
Оно стремится в пространство
11
00:10:08,875 --> 00:10:10,951
Как вы и я
12
00:10:12,110 --> 00:10:14,610
Время ткет его
13
00:10:15,114 --> 00:10:17,447
"умирание и становление".
14
00:10:18,581 --> 00:10:21,691
Народ становится высоким как лес
15
00:10:22,195 --> 00:10:24,711
В вечности.
16
00:11:14,231 --> 00:11:17,143
Из лесов мы идем
17
00:11:17,263 --> 00:11:20,010
Как лес мы живем
18
00:11:20,316 --> 00:11:22,802
Из леса формируемся мы,
19
00:11:23,106 --> 00:11:25,988
Наша родина и обычаи.
[teatrix.ru].t4576.torrent 
Торрент: Зарегистрирован [ 2015-10-08 00:27 ] · 88B5FDED551279903B958F16D6C980BA488ED573

Скачать .torrent

Скачать

11 KB

Статус: проверено
Скачан: 0 раз
Размер: 1.05 GB
terms.php



Быстрый ответ

Имя:

      
Для отправки сообщений необходимо включить JavaScript
Показать сообщения:    

Текущее время: 11-Дек 01:21

Часовой пояс: UTC + 3


Вы можете начинать темы
Вы можете отвечать на сообщения
Вы не можете редактировать свои сообщения
Вы не можете удалять свои сообщения
Вы не можете голосовать в опросах
Вы не можете прикреплять файлы к сообщениям
Вы можете скачивать файлы