Уборка города / Служба очистки города / Метельщики улиц / N.U. / Netezza urbana (Микеланджело Антониони / Michelangelo Antonioni) [1948, Италия, Арт-хаус, документальный, короткометражка, DVDRip] MVO + VO + Original Ita, Sub 2xRus + Eng


Статистика раздачи [Обновить пиров]
Размер:  161 MB   |    Зарегистрирован:  1 год 3 месяца   |    Скачан:  0 раз

Полного источника не было: Никогда

 
   
 
 
 

[Цитировать]

Уборка города / Служба очистки города / Метельщики улиц / N.U. / Netezza urbana
Страна: Италия
Жанр: Арт-хаус, документальный, короткометражка
Год выпуска: 1948
Продолжительность: 00:11:41
Перевод #1: Любительский (одноголосый закадровый) [Мякичев Юрий]
Перевод #2: Профессиональный (многоголосый закадровый) [Film Prestige]
Перевод #3: Субтитры [Мякичев Юрий]
Перевод #4: Субтитры [Film Prestige]
Cубтитры: русские, английские
Оригинальная аудиодорожка: итальянский
Режиссер: Микеланджело Антониони / Michelangelo Antonioni
В ролях: Дворники
Описание: Документальный фильм о дворниках в Риме.


Качество видео: DVDRip
Формат видео: MKV
Видео: AVC, 720x546 (4/3), 23.976 fps, 1 393 Kbps (0.148 bit/pixel)
Аудио #1: AC-3, 48.0 KHz, 1 ch, 192 Kbps, CBR (Italian)
Аудио #2: AC-3, 48.0 KHz, 2 ch, 192 Kbps, CBR (Russian) [Одноголосый]
Аудио #3: AC-3, 48.0 KHz, 1 ch, 112 Kbps, CBR (Russian) [Многоголосый]
Формат субтитров: softsub(SRT) + prerendered (IDX+SUB)-

MediaInfo

GeneralFormat : MatroskaFile size : 161 MiBDuration : 11mn 41sOverall bit rate : 1 926 KbpsEncoded date : UTC 2012-08-12 17:12:11Writing application : mkvmerge v4.3.0 ('Escape from the Island') сборка от Sep 5 2010 10:30:51Writing library : libebml v1.0.0 + libmatroska v1.0.0
VideoID : 1Format : AVCFormat/Info : Advanced Video CodecFormat profile : Main@L3.0Format settings, CABAC : YesFormat settings, ReFrames : 2 framesMuxing mode : Header strippingCodec ID : V_MPEG4/ISO/AVCDuration : 11mn 41sBit rate mode : VariableBit rate : 1 391 KbpsMaximum bit rate : 2 121 KbpsWidth : 720 pixelsHeight : 546 pixelsDisplay aspect ratio : 4:3Frame rate : 23.976 fpsColor space : YUVChroma subsampling : 4:2:0Bit depth : 8 bitsScan type : ProgressiveBits/(Pixel*Frame) : 0.148Stream size : 116 MiB (72%)
Audio #1ID : 2Format : AC-3Format/Info : Audio Coding 3Mode extension : CM (complete main)Muxing mode : Header strippingCodec ID : A_AC3Duration : 11mn 41sBit rate mode : ConstantBit rate : 192 KbpsChannel(s) : 1 channelChannel positions : Front: CSampling rate : 48.0 KHzBit depth : 16 bitsStream size : 16.1 MiB (10%)Title : ОригиналLanguage : Italian
Audio #2ID : 5Format : AC-3Format/Info : Audio Coding 3Mode extension : CM (complete main)Muxing mode : Header strippingCodec ID : A_AC3Duration : 11mn 41sBit rate mode : ConstantBit rate : 192 KbpsChannel(s) : 2 channelsChannel positions : Front: L RSampling rate : 48.0 KHzBit depth : 16 bitsStream size : 16.1 MiB (10%)Title : Любительский одноголосый (Озвучка - Мякичев Юрий)Language : Russian
Audio #3ID : 6Format : AC-3Format/Info : Audio Coding 3Mode extension : CM (complete main)Muxing mode : Header strippingCodec ID : A_AC3Duration : 11mn 41sBit rate mode : ConstantBit rate : 112 KbpsChannel(s) : 1 channelChannel positions : Front: CSampling rate : 48.0 KHzBit depth : 16 bitsStream size : 9.36 MiB (6%)Title : Профессиональный многоголосый (Озвучка - Film Prestige)Language : Russian
Text #1ID : 3Format : UTF-8Codec ID : S_TEXT/UTF8Codec ID/Info : UTF-8 Plain TextTitle : Русские (Перевод - Мякичев Юрий)Language : Russian
Text #2ID : 4Format : VobSubMuxing mode : zlibCodec ID : S_VOBSUBCodec ID/Info : The same subtitle format used on DVDsTitle : АнглийскиеLanguage : English
Text #3ID : 7Format : VobSubMuxing mode : zlibCodec ID : S_VOBSUBCodec ID/Info : The same subtitle format used on DVDsTitle : Русские (Перевод - Film Prestige)Language : Russian
-
[teatrix.ru].t4580.torrent 
Торрент: Зарегистрирован [ 2015-10-08 00:27 ] · 81110F05B046900EF0D8D5623B7DD48FC0ABF143

Скачать .torrent

Скачать

13 KB

Статус: проверено
Скачан: 0 раз
Размер: 161 MB
terms.php



Быстрый ответ

Имя:

      
Для отправки сообщений необходимо включить JavaScript
Показать сообщения:    

Текущее время: 24-Янв 12:13

Часовой пояс: UTC + 3


Вы можете начинать темы
Вы можете отвечать на сообщения
Вы не можете редактировать свои сообщения
Вы не можете удалять свои сообщения
Вы не можете голосовать в опросах
Вы не можете прикреплять файлы к сообщениям
Вы можете скачивать файлы