Слава блудницы / Whores' Glory (Михаэль Главоггер / Michael Glawogger) [2011, Германия, Австрия, документальный, BDRemux 1080i] Sub Rus


Статистика раздачи [Обновить пиров]
Размер:  16.95 GB   |    Зарегистрирован:  1 год 2 месяца   |    Скачан:  0 раз

Полного источника не было: Никогда

 
   
 
 
 

[Цитировать]

Слава блудницы / Whores' Glory
Год выпуска: 2011
Страна: Германия, Австрия
Жанр: Документальный
Продолжительность: 01:54:07
Перевод: Отсутствует
Русские субтитры: есть,отключаемые, огромное спасибо creo140, взяты здесь http://teatrix.ru/viewtopic.php?t=4591
Немецкие субтитры: не отключаемые.
Режиссер: Михаэль Главоггер / Michael Glawogger
Описание: Триптих о проституции, снятый в Таиланде, Мексике и Бангладеш.
"Режиссер говорит о фильме: я всегда чувствовал, что проституция это не только, когда вы платите кому-то за секс. Это было бы слишком просто, потому что когда переговоры закончены и сделка совершена, остаются только двое голых людей, которые совершают самый интимный акт из всех. Я хотел попытаться исследовать нечто большее: что она (проституция) делает в сердцах, умах и душах обеих сторон?"

Качество: BDRemux 1080i Исходник Whores' Glory (2011) Blu-ray 1080i AVC DTS-HD 5.1
Исходник: Blu-ray
BD-25 Single-Layer Disc
Контейнер: MKV
Видео кодек: H.264
Аудио кодек: DTS-HD Maser Audio
Видео: MPEG-4 AVC Video / 19.0 Mbps / 1920x1080i / 25.000 fps / 1:85:1 / High Profile 4.1
Аудио #1: English / Thai / Japanese / Spanish / Bengali DTS-HD MA 5.1(6 channels, Front: L C R, Side: L R, LFE; 1 561 Kbps / 1 510 Kbps; 48.0 KHz; 16 bits)
Аудио #2: German DTS 2.0 (48 kHz / 320 kbps / 16-bit)
Формат субтитров: softsub (SRT)

BDInfo

General
Unique ID : 65316266456839777749476927360816288855 (0x312374915325807D7ABA60303F529457)
Complete name : /Users/Movies/WHORES_GLORY[release_by_Doktor_S].mkv
Format : Matroska
Format version : Version 2
File size : 16.9 GiB
Duration : 1h 54mn
Overall bit rate mode : Variable
Overall bit rate : 21.3 Mbps
Movie name : WHORES_GLORY[release_by_Doktor_S]
Encoded date : UTC 2012-07-22 18:18:08
Writing application : mkvmerge v5.5.0 ('Healer') built on Apr 25 2012 20:53:43
Writing library : libebml v1.2.2 + libmatroska v1.3.0
Video
ID : 1
Format : AVC
Format/Info : Advanced Video Codec
Format profile : High@L4.1
Format settings, CABAC : Yes
Format settings, ReFrames : 4 frames
Codec ID : V_MPEG4/ISO/AVC
Duration : 1h 54mn
Bit rate mode : Variable
Bit rate : 19.0 Mbps
Maximum bit rate : 38.0 Mbps
Width : 1 920 pixels
Height : 1 080 pixels
Display aspect ratio : 16:9
Frame rate : 25.000 fps
Color space : YUV
Chroma subsampling : 4:2:0
Bit depth : 8 bits
Scan type : MBAFF
Bits/(Pixel*Frame) : 0.366
Stream size : 15.1 GiB (89%)
Default : Yes
Forced : No
Color primaries : BT.709-5, BT.1361, IEC 61966-2-4, SMPTE RP177
Transfer characteristics : BT.709-5, BT.1361
Matrix coefficients : BT.709-5, BT.1361, IEC 61966-2-4 709, SMPTE RP177
Audio #1
ID : 2
Format : DTS
Format/Info : Digital Theater Systems
Format profile : MA / Core
Codec ID : A_DTS
Duration : 1h 54mn
Bit rate mode : Variable
Bit rate : 1 561 Kbps / 1 510 Kbps
Channel(s) : 6 channels
Channel positions : Front: L C R, Side: L R, LFE
Sampling rate : 48.0 KHz
Bit depth : 16 bits
Compression mode : Lossless / Lossy
Title : Original (English/Thai/Japanese/Spanish/Bengali DTS-HD MA 5.1)
Default : Yes
Forced : No
Audio #2
ID : 3
Format : DTS
Format/Info : Digital Theater Systems
Codec ID : A_DTS
Duration : 1h 54mn
Bit rate mode : Constant
Bit rate : 320 Kbps
Channel(s) : 2 channels
Channel positions : Front: L R
Sampling rate : 48.0 KHz
Bit depth : 16 bits
Compression mode : Lossy
Stream size : 261 MiB (2%)
Title : German DTS 2.0 (48 kHz / 320 kbps / 16-bit)
Language : German
Default : No
Forced : No
Text
ID : 4
Format : UTF-8
Codec ID : S_TEXT/UTF8
Codec ID/Info : UTF-8 Plain Text
Title : creo140
Language : Russian
Default : No
Forced : No

Скриншоты

[teatrix.ru].t4584.torrent 
Торрент: Зарегистрирован [ 2015-10-08 00:27 ] · D2484035BE126D6E101B7FC218934761DFA4F06D

Скачать .torrent

Скачать

170 KB

Статус: проверено
Скачан: 0 раз
Размер: 16.95 GB
terms.php



Быстрый ответ

Имя:

      
Для отправки сообщений необходимо включить JavaScript
Показать сообщения:    

Текущее время: 11-Дек 03:21

Часовой пояс: UTC + 3


Вы можете начинать темы
Вы можете отвечать на сообщения
Вы не можете редактировать свои сообщения
Вы не можете удалять свои сообщения
Вы не можете голосовать в опросах
Вы не можете прикреплять файлы к сообщениям
Вы можете скачивать файлы