Сумасшедшая жизнь / Безумная жизнь / La Vida Loca (Кристиан Поведа / Christian Poveda) [2008, Франция, Испания, Мексика, арт-хаус, документалистика, криминал, BDRip 720p] VO (Kenum) + Sub Rus,Fre + Original Esp


Статистика раздачи [Обновить пиров]
Размер:  5.31 GB   |    Зарегистрирован:  1 год 1 месяц   |    Скачан:  0 раз

Полного источника не было: Никогда

 
   
 
 
 

[Цитировать]

Сумасшедшая жизнь / Безумная жизнь / La Vida Loca
Страна: Франция, Испания, Мексика
Жанр: арт-хаус, документалистика, криминал
Год выпуска: 2008
Продолжительность: 01:29:45
Озвучка: Одноголосая закадровая Kenum (Владислав Данилов) по переводу Егора Шестакова
Cубтитры: русские, французские
Оригинальная аудиодорожка: испанский
Режиссер: Кристиан Поведа / Christian Poveda
В ролях: Все герои - реально существующие/существовавшие люди
Описание: Фильм La Vida Loca снят французским журналистом Кристианом Поведой (Christian Poveda). В период с 1980-1992 года он освещал тему гражданской войны в Сальвадоре. А в 2003 году переехал туда насовсем, женившись на местной жительнице. В течении 16 месяцев Кристиан буквально жил среди бандитов и снимал то, что ему позволяли старшие. Фильм был закончен в 2008 году. Но, дружба с бандитами закончилась для журналиста весьма печально - 2 сентября 2008 года его нашли в своей машине с простреленной головой.
Тема латиноамериканских группировок немного освещалась в докуметальном фильме National Geographic о банде Мара Сальватруча (Mara Salvatrucha, MS13, Mara 13). Фильм La Vida Loca рассказывает об их заклятых врагах - банде Мара 18 (Mara 18, 18), среди членов которой жил французский журналист.
La Vida Loca - не просто документальный фильм. Он показывает реальные кадры из повседневной жизни бандитов Мара 18 в районе Ла Кампанера сальвадорской столицы Сан-Сальвадор. Тут нет никаких пояснений со стороны автора. Просто жизнь, как она есть. Все герои фильма - реальные люди. В период общения журналиста с бандитами в непосредственной близости от автора грохнули 7 человек. 3 из этих смертей показаны в фильме.
Цифра 18 в названии банды, как и цифра 13 в альтернативном названии Мара Сальватруча (MS13) - это, если кто не знает, 13-ая и 18-ая улицы американского города Лос-Анджелеса, места, где эти банды появились.


Сэмпл : http://multi-up.com/735941
Тип релиза: BDRip 720p
Контейнер: MKV
Видео: MPEG-4 AVC, 1280x688, 5451 кбит/сек, 25.00 fps
Аудио: 48 kHz, DTS, 3/2 (L,C,R,l,r) + LFE ch, ~1510.00 kbps avg VO Kenum (Владислав Данилов)
Аудио 2: 48 kHz, DTS, 3/2 (L,C,R,l,r) + LFE ch, ~1510.00 kbps avg original
Формат субтитров: softsub (SRT)

MediaInfo

ФИЛЬМЫ\БЕЗУМНАЯ ЖИЗНЬ (VO+SUB).2008.720p.BluRay.x264-lord_i_74.mkv
Формат : Matroska
Версия формата : Version 2
Размер файла : 5,31 Гбайт
Продолжительность : 1 ч. 29 м.
Общий поток : 8470 Кбит/сек
Дата кодирования : UTC 2012-07-21 16:47:30
Программа кодирования : mkvmerge v5.0.1 ('Es ist Sommer') built on Oct 9 2011 11:55:43
Библиотека кодирования : libebml v1.2.2 + libmatroska v1.3.0
Видео
Идентификатор : 1
Формат : AVC
Формат/Информация : Advanced Video Codec
Профиль формата : High@L4.1
Параметр CABAC формата : Да
Параметр ReFrames формата : 5 кадров
Идентификатор кодека : V_MPEG4/ISO/AVC
Продолжительность : 1 ч. 29 м.
Битрейт : 5451 Кбит/сек
Ширина : 1280 пикс.
Высота : 688 пикс.
Соотношение сторон : 1,860
Частота кадров : 25,000 кадр/сек
Цветовое пространство : YUV
Подвыборка цветности : 4:2:0
Битовая глубина : 8 бит
Тип развёртки : Прогрессивная
Бит/(Пиксели*Кадры) : 0.248
Размер потока : 3,31 Гбайт (62%)
Заголовок : La.Vida.Loca.2008.SUBFRENCH.720p.BluRay.x264-MAGiCAL
Библиотека кодирования : x264 core 125 r2200 999b753
Настройки программы : cabac=1 / ref=5 / deblock=1:0:0 / analyse=0x3:0x133 / me=umh / subme=8 / psy=1 / psy_rd=1.00:0.00 / mixed_ref=1 / me_range=16 / chroma_me=1 / trellis=1 / 8x8dct=1 / cqm=0 / deadzone=21,11 / fast_pskip=1 / chroma_qp_offset=-2 / threads=8 / lookahead_threads=1 / sliced_threads=0 / nr=0 / decimate=1 / interlaced=0 / bluray_compat=0 / constrained_intra=0 / bframes=3 / b_pyramid=2 / b_adapt=1 / b_bias=0 / direct=1 / weightb=1 / open_gop=0 / weightp=2 / keyint=250 / keyint_min=25 / scenecut=40 / intra_refresh=0 / rc=2pass / mbtree=0 / bitrate=5451 / ratetol=1.0 / qcomp=0.60 / qpmin=0 / qpmax=69 / qpstep=4 / cplxblur=20.0 / qblur=0.5 / ip_ratio=1.40 / pb_ratio=1.30 / aq=1:1.00
Язык : English
Аудио #1
Идентификатор : 2
Формат : DTS
Формат/Информация : Digital Theater Systems
Идентификатор кодека : A_DTS
Продолжительность : 1 ч. 29 м.
Вид битрейта : Постоянный
Битрейт : 1510 Кбит/сек
Каналы : 6 каналов
Расположение каналов : Front: L C R, Side: L R, LFE
Частота : 48,0 КГц
Битовая глубина : 24 бит
Метод сжатия : С потерями
Размер потока : 969 Мбайт (18%)
Заголовок : VO Kenum (Владислав Данилов)
Язык : Russian
Аудио #2
Идентификатор : 3
Формат : DTS
Формат/Информация : Digital Theater Systems
Идентификатор кодека : A_DTS
Продолжительность : 1 ч. 29 м.
Вид битрейта : Постоянный
Битрейт : 1510 Кбит/сек
Каналы : 6 каналов
Расположение каналов : Front: L C R, Side: L R, LFE
Частота : 48,0 КГц
Битовая глубина : 24 бит
Метод сжатия : С потерями
Размер потока : 969 Мбайт (18%)
Заголовок : SPA DTS
Язык : Spanish
Текст #1
Идентификатор : 4
Формат : UTF-8
Идентификатор кодека : S_TEXT/UTF8
Идентификатор кодека/Информация : UTF-8 Plain Text
Заголовок : sub Егор Шестаков
Язык : Russian
Текст #2
Идентификатор : 5
Формат : UTF-8
Идентификатор кодека : S_TEXT/UTF8
Идентификатор кодека/Информация : UTF-8 Plain Text
Заголовок : sub
Язык : French

Скриншоты

[teatrix.ru].t4586.torrent 
Торрент: Зарегистрирован [ 2015-10-08 00:27 ] · 97199AC1AE6DE706AC78B4955BFCA526288E0AD5

Скачать .torrent

Скачать

27 KB

Статус: проверено
Скачан: 0 раз
Размер: 5.31 GB
terms.php



Быстрый ответ

Имя:

      
Для отправки сообщений необходимо включить JavaScript
Показать сообщения:    

Текущее время: 04-Дек 13:13

Часовой пояс: UTC + 3


Вы можете начинать темы
Вы можете отвечать на сообщения
Вы не можете редактировать свои сообщения
Вы не можете удалять свои сообщения
Вы не можете голосовать в опросах
Вы не можете прикреплять файлы к сообщениям
Вы можете скачивать файлы