Слава блудницы / Whores' Glory (Михаэль Главоггер / Michael Glawogger) [2011, Германия, Австрия, Документальный, DVDRip] Sub Rus


Статистика раздачи [Обновить пиров]
Размер:  1.46 GB   |    Зарегистрирован:  1 год 2 месяца   |    Скачан:  0 раз

Полного источника не было: Никогда

 
   
 
 
 

[Цитировать]

Слава блудницы / Whores' Glory
Страна: Германия, Австрия
Жанр: Документальный
Год выпуска: 2011
Продолжительность: 01:54:06
Перевод: Субтитры (creo140)
Cубтитры: русские
Оригинальная аудиодорожка: английский, испанский, тайский, немецкий, японский
Режиссер: Михаэль Главоггер / Michael Glawogger
Описание: "Режиссер говорит о фильме: я всегда чувствовал, что проституция это не только, когда вы платите кому-то за секс. Это было бы слишком просто, потому что когда переговоры закончены и сделка совершена, остаются только двое голых людей, которые совершают самый интимный акт из всех. Я хотел попытаться исследовать нечто большее: что она (проституция) делает в сердцах, умах и душах обеих сторон?"
Доп. информация: http://www.imdb.com/title/tt1327628/
http://www.kinopoisk.ru/level/1/film/438560/
Сэмпл: http://www.mediafire.com/?80hw3th1wa5grd8
Качество видео: DVDRip
Формат видео: AVI
Видео: 720x384 (1.88:1), 25 fps, XviD build 50 ~1375 kbps avg, 0.20 bit/pixel
Аудио: 48 kHz, AC3 Dolby Digital, 3/2 (L,C,R,l,r) + LFE ch, ~448 kbps
Формат субтитров: softsub (SRT)

Дополнительные постеры



MediaInfo

Формат : AVI
Формат/Информация : Audio Video Interleave
Размер файла : 1,46 Гбайт
Продолжительность : 1 ч. 54 м.
Общий поток : 1834 Кбит/сек
Программа кодирования : VirtualDubMod 1.5.10.3 | www.virtualdub-fr.org || (build 2550/release)
Библиотека кодирования : VirtualDubMod build 2550/release
Видео
Идентификатор : 0
Формат : MPEG-4 Visual
Профиль формата : Advanced Simple@L5
Параметр BVOP формата : 1
Параметр QPel формата : Нет
Параметр GMC формата : Без точки перехода
Параметр матрицы формата : Default (MPEG)
Идентификатор кодека : XVID
Идентификатор кодека/Подсказка : XviD
Продолжительность : 1 ч. 54 м.
Битрейт : 1376 Кбит/сек
Ширина : 720 пикселей
Высота : 384 пикселя
Соотношение сторон : 1,875
Частота кадров : 25,000 кадров/сек
Цветовое пространство : YUV
Субдискретизация насыщенности : 4:2:0
Битовая глубина : 8 бит
Тип развёртки : Прогрессивная
Метод сжатия : С потерями
Бит/(Пиксели*Кадры) : 0.199
Размер потока : 1,10 Гбайт (75%)
Библиотека кодирования : XviD 1.2.1 (UTC 2008-12-04)
Аудио
Идентификатор : 1
Формат : AC-3
Формат/Информация : Audio Coding 3
Расширение режима : CM (complete main)
Идентификатор кодека : 2000
Продолжительность : 1 ч. 54 м.
Вид битрейта : Постоянный
Битрейт : 448 Кбит/сек
Каналы : 6 каналов
Расположение каналов : Front: L C R, Side: L R, LFE
Частота : 48,0 КГц
Битовая глубина : 16 бит
Метод сжатия : С потерями
Размер потока : 366 Мбайт (24%)
Выравнивание : Разделение по промежуткам
Продолжительность промежутка : 40 мс. (1,00 видеокадр)
Время предзагрузки промежутка : 500 мс.

Фрагмент субтитров

499
00:46:44,040 --> 00:46:45,839
Не смейся.
500
00:46:46,060 --> 00:46:47,279
Я не могу ничего с собой поделать.
501
00:46:47,360 --> 00:46:49,159
Смех тоже всегда приносит грусть.
502
00:46:50,000 --> 00:46:52,959
Почему я плачу? Я достаточно слёз пролила за свою жизнь.
503
00:46:53,440 --> 00:46:56,679
Я не могу ничего с собой поделать,
я должна смеяться.
504
00:46:58,080 --> 00:47:01,119
Мы живём, смеясь или плача.
Это обе части нашей жизни.
505
00:47:01,280 --> 00:47:05,599
Никто не может увидеть то, что захоронено глубже.
506
00:47:06,800 --> 00:47:08,079
Здесь так много горя и боли.
507
00:47:08,140 --> 00:47:11,459
Мы стараемся забыть о боли, смеясь.
508
00:47:12,120 --> 00:47:15,559
Но боль остаётся.
509
00:47:29,200 --> 00:47:31,399
Мы идём туда, чтобы насладиться и получить удовольствие.

Скриншот c названием фильма

[teatrix.ru].t4591.torrent 
Торрент: Зарегистрирован [ 2015-10-08 00:27 ] · 785C2F0F2CB35B0897B7A43CB0F4B8E6431F24C5

Скачать .torrent

Скачать

15 KB

Статус: проверено
Скачан: 0 раз
Размер: 1.46 GB
terms.php



Быстрый ответ

Имя:

      
Для отправки сообщений необходимо включить JavaScript
Показать сообщения:    

Текущее время: 10-Дек 15:48

Часовой пояс: UTC + 3


Вы можете начинать темы
Вы можете отвечать на сообщения
Вы не можете редактировать свои сообщения
Вы не можете удалять свои сообщения
Вы не можете голосовать в опросах
Вы не можете прикреплять файлы к сообщениям
Вы можете скачивать файлы