В Вальпараисо / ...A Valparaiso (Joris Ivens / Йорис Ивенс) [1965, Чили, Франция, документальный, короткометражка, TVRip] original + sub


Статистика раздачи [Обновить пиров]
Размер:  311 MB   |    Зарегистрирован:  1 год 2 месяца   |    Скачан:  0 раз

Полного источника не было: Никогда

 
   
 
 
 

[Цитировать]

В Вальпараисо / ...A Valparaiso
Страна: Чили, Франция
Жанр: документальный, короткометражка
Год выпуска: 1965
Продолжительность: 00:26:40
Перевод: Субтитры (JacobSSoN)
Режиссер: Joris Ivens / Йорис Ивенс
Сценарий: Chris Marker / Крис Маркер
Текст читает: Roger Pigaut / Роже Пиго
Описание: Короткометражный фильм о чилийском городе-порте Вальпараисо.
Рассуждение об истории, судьбе и прочих составляющих города на сорока двух холмах.
|
Качество видео: TVRip
Формат видео: AVI
Видео: 640x480 (1.33:1), 23.976 fps, XviD build 50 ~1491 kbps avg, 0.20 bit/pixel
Аудио: 48 kHz, MPEG Layer 3, 2 ch, ~128.00 kbps avg
Формат субтитров: softsub (SRT)

MediaInfo

General
Complete name : D:\Video\cinema\a Valparaiso\a Valparaiso.avi
Format : AVI
Format/Info : Audio Video Interleave
File size : 311 MiB
Duration : 26mn 40s
Overall bit rate : 1 629 Kbps
Writing application : VirtualDubMod 1.5.10.2 (build 2540/release)
Writing library : VirtualDubMod build 2540/release
Video
ID : 0
Format : MPEG-4 Visual
Format profile : Advanced Simple@L5
Format settings, BVOP : 2
Format settings, QPel : No
Format settings, GMC : No warppoints
Format settings, Matrix : Custom
Codec ID : XVID
Codec ID/Hint : XviD
Duration : 26mn 40s
Bit rate : 1 491 Kbps
Width : 640 pixels
Height : 480 pixels
Display aspect ratio : 4:3
Frame rate : 23.976 fps
Color space : YUV
Chroma subsampling : 4:2:0
Bit depth : 8 bits
Scan type : Progressive
Compression mode : Lossy
Bits/(Pixel*Frame) : 0.202
Stream size : 285 MiB (92%)
Writing library : XviD 1.2.1 (UTC 2008-12-04)
Audio
ID : 1
Format : MPEG Audio
Format version : Version 1
Format profile : Layer 3
Mode : Joint stereo
Mode extension : MS Stereo
Codec ID : 55
Codec ID/Hint : MP3
Duration : 26mn 40s
Bit rate mode : Constant
Bit rate : 128 Kbps
Channel(s) : 2 channels
Sampling rate : 48.0 KHz
Compression mode : Lossy
Stream size : 24.4 MiB (8%)
Alignment : Aligned on interleaves
Interleave, duration : 42 ms (1.00 video frame)
Interleave, preload duration : 504 ms
Writing library : LAME3.90.3ЄЄЄЄЄЄЄЄЄЄ

Пример субтитров

21
00:03:23,937 --> 00:03:27,429
Ужасно звучащее по-французски
«Вальпарезо»...
22
00:03:28,508 --> 00:03:31,306
...на самом деле «Валь Параисо»,
райская долина.
23
00:03:32,045 --> 00:03:33,876
Рай, похожий на луч солнца
24
00:03:34,080 --> 00:03:36,571
рассеивающий кошмары
моряков, окрестивших город.
25
00:03:37,517 --> 00:03:39,917
Или последняя ступенька перед раем.
26
00:04:05,912 --> 00:04:08,779
Каждый день в этом городе
в полдень солнце творит чудеса.
27
00:04:10,016 --> 00:04:11,916
Все женщины Вальпараисо
выходят со своими зонтиками...
28
00:04:12,118 --> 00:04:14,916
чтобы выгулять пингвинов Вальпараисо.
29
00:04:25,431 --> 00:04:27,592
Все мосты словно сделаны из воздуха.
30
00:04:28,334 --> 00:04:31,701
Все дома треугольны,
их невозможно меблировать.
31
00:04:33,172 --> 00:04:35,299
Все лестницы кончаются на полпути.
32
00:04:37,310 --> 00:04:39,369
Идущий по ним должен
повернуть или полететь.
[teatrix.ru].t4596.torrent 
Торрент: Зарегистрирован [ 2015-10-08 00:27 ] · C3315D7A0A521C9FBCB68EBB92D14E303F6DA536

Скачать .torrent

Скачать

13 KB

Статус: проверено
Скачан: 0 раз
Размер: 311 MB
terms.php



Быстрый ответ

Имя:

      
Для отправки сообщений необходимо включить JavaScript
Показать сообщения:    

Текущее время: 10-Дек 02:15

Часовой пояс: UTC + 3


Вы можете начинать темы
Вы можете отвечать на сообщения
Вы не можете редактировать свои сообщения
Вы не можете удалять свои сообщения
Вы не можете голосовать в опросах
Вы не можете прикреплять файлы к сообщениям
Вы можете скачивать файлы