Завтрак с Хантером / Breakfast with Hunter (Вейн Юинг / Wayne Ewing) [2003, США, документальный, DVDRip] VO Jimmy J. + Original + Sub


Статистика раздачи [Обновить пиров]
Размер:  1.46 GB   |    Зарегистрирован:  1 год 1 месяц   |    Скачан:  0 раз

Полного источника не было: Никогда

 
   
 
 
 

[Цитировать]

Завтрак с ХантеромBreakfast with HunterСтрана: США
Жанр: документальный
Год выпуска: 2003
Продолжительность: 01:31:36
Перевод: Одноголосый закадровый (Jimmy J.)
Cубтитры: русские
Оригинальная аудиодорожка: английский-Режиссер: Вейн Юинг
В ролях: Хантер Томпсон, Джонни Депп, Боб Браудис, Дуглас Бринкли, Алекс Кокс, Джон Кьюсак, Тод Дейвис, Моррис Деес, Бенисио Дель Торо
Описание: Хантер Томпсон — уникальная личность в культуре Америки второй половины ХХ века. Уэйн Юинг на правах друга и соседа предпринял попытку показать изнутри жизнь человека-легенды, перевернувшего основы американской журналистики. Фильм получился коллажем сменяющихся эксцентричных выходок главного действующего лица и зарисовок его жизни за последние двадцать лет. Проблемы с экранизацией книги Доброго Доктора «Страх и ненависть в Лас-Вегасе» также стали частью картины.- -Релиз: Gonzo National Press Club
Перевод: Денис Ланцев
Озвучка: Jimmy J.
Редакция: Денис Грибоедов
При поддержке: Groovy Inc.-Качество видео: DVDRip [Сэмпл]
Формат видео: AVI
Видео: 786x576 (1.36:1), 29.970 fps, DivX Codec 5.x or 6.x ~1999 kbps avg, 0.15 bit/pixel
Аудио 1: 48 kHz, MPEG Layer 3, 2 ch, ~128.00 kbps avg (Русский)
Аудио 2: 48 kHz, MPEG Layer 3, 2 ch, ~128.00 kbps avg (Английский)
Формат субтитров: softsub (SRT)-

MediaInfo

General
Complete name                            : D:\Видео\Фильмы\Хантер Томпсон\Завтрак с Хантером (2003) DVDRip Jimmy J. 1.45\Завтрак с Хантером (2003) DVDRip Jimmy J. 1.45.avi
Format                                   : AVI
Format/Info                              : Audio Video Interleave
File size                                : 1.45 GiB
Duration                                 : 1h 31mn
Overall bit rate                         : 2 274 Kbps
Movie name                               : Завтрак с Хантером (2003) DVDRip 1.45
Director                                 : Jimmy J.
Genre                                    : Documentary
Writing application                      : VirtualDubMod 1.5.10.2 (build 2542/release)
Original source form/Name                : Documentary
Copyright                                : http://gonzonational.ru
Comment                                  : Перевод: Денис Ланцев, Редакция: Денис Грибоедов
Video
ID                                       : 0
Format                                   : MPEG-4 Visual
Format profile                           : Simple@L1
Format settings, BVOP                    : No
Format settings, QPel                    : No
Format settings, GMC                     : No warppoints
Format settings, Matrix                  : Default (H.263)
Codec ID                                 : DX50
Codec ID/Hint                            : DivX 5
Duration                                 : 1h 31mn
Bit rate                                 : 2 000 Kbps
Width                                    : 786 pixels
Height                                   : 576 pixels
Display aspect ratio                     : 4:3
Frame rate                               : 29.970 fps
Color space                              : YUV
Chroma subsampling                       : 4:2:0
Bit depth                                : 8 bits
Scan type                                : Progressive
Compression mode                         : Lossy
Bits/(Pixel*Frame)                       : 0.147
Stream size                              : 1.28 GiB (88%)
Writing library                          : Lavc51.40.4
Audio #1
ID                                       : 1
Format                                   : MPEG Audio
Format version                           : Version 1
Format profile                           : Layer 3
Mode                                     : Joint stereo
Mode extension                           : MS Stereo
Codec ID                                 : 55
Codec ID/Hint                            : MP3
Duration                                 : 1h 31mn
Bit rate mode                            : Constant
Bit rate                                 : 128 Kbps
Channel(s)                               : 2 channels
Sampling rate                            : 48.0 KHz
Compression mode                         : Lossy
Delay relative to video                  : 2ms
Stream size                              : 83.9 MiB (6%)
Alignment                                : Split accross interleaves
Interleave, duration                     : 33 ms (1.00 video frame)
Interleave, preload duration             : 504 ms
Writing library                          : LAME3.97
Audio #2
ID                                       : 2
Format                                   : MPEG Audio
Format version                           : Version 1
Format profile                           : Layer 3
Mode                                     : Joint stereo
Mode extension                           : MS Stereo
Codec ID                                 : 55
Codec ID/Hint                            : MP3
Duration                                 : 1h 31mn
Bit rate mode                            : Constant
Bit rate                                 : 128 Kbps
Channel(s)                               : 2 channels
Sampling rate                            : 48.0 KHz
Compression mode                         : Lossy
Delay relative to video                  : 2ms
Stream size                              : 83.9 MiB (6%)
Alignment                                : Split accross interleaves
Interleave, duration                     : 33 ms (1.00 video frame)
Interleave, preload duration             : 504 ms
Writing library                          : LAME3.97

Скриншот c названием фильма

Скриншоты

[teatrix.ru].t4602.torrent 
Торрент: Зарегистрирован [ 2015-10-08 00:27 ] · 13FABDC5ADA3ADCAAE70F03CD228165F0CD3AAC9

Скачать .torrent

Скачать

15 KB

Статус: проверено
Скачан: 0 раз
Размер: 1.46 GB
terms.php



Быстрый ответ

Имя:

      
Для отправки сообщений необходимо включить JavaScript
Показать сообщения:    

Текущее время: 04-Дек 06:48

Часовой пояс: UTC + 3


Вы можете начинать темы
Вы можете отвечать на сообщения
Вы не можете редактировать свои сообщения
Вы не можете удалять свои сообщения
Вы не можете голосовать в опросах
Вы не можете прикреплять файлы к сообщениям
Вы можете скачивать файлы