Владимир Кобрин - сборник работ. Часть 10,11 [1977 - 1988 гг., научно-популярный, DVDRip]


Статистика раздачи [Обновить пиров]
Размер:  1.41 GB   |    Зарегистрирован:  1 год 2 месяца   |    Скачан:  0 раз

Полного источника не было: Никогда

 
   
 
 
 

[Цитировать]

Владимир Кобрин. Антология фильмов. Части 10,11
Страна: СССР
Жанр: научно-популярный
Годы выпусков: 1977-1988
Продолжительность: 00:19:43 + 00:20:01 + 00:18:45 + 00:19:06 + 00:17:28 + 00:18:30
Cубтитры: нет
Режиссер: Владимир Кобрин
Список фильмов в данной раздаче:
● Явление радиоактивности (1977)
● Регуляция биологических процессов (1985)
● Молекулярная биофизика (1986)
● Перенос электрона в биологических системах (1987)
● Биофизика ферментативных процессов (1987)
● Первичные фотобиологические процессы (1988)
Доп. информация: так же хочется обратить внимание на раздачу замечательного фильма Физические основы Квантовой теории (1981), которая не ищется по слову "Кобрин".
Качество видео: DVDRip
Формат видео: AVI
Видео: 640x480, 25 fps, DivX 5.0, 1500Kbps avg
Аудио: 48 kHz, 2 ch, MP3, 224Kbps cbr

пример MediaInfo

General
Complete name                            : Kobrin 11-2 - Biofizika fermentativnyh processov (1987).avi
Format                                   : AVI
Format/Info                              : Audio Video Interleave
File size                                : 217 MiB
Duration                                 : 17mn 28s
Overall bit rate                         : 1 734 Kbps
Writing library                          : VirtualDub build 32842/release
Video
ID                                       : 0
Format                                   : MPEG-4 Visual
Format settings, BVOP                    : 1
Format settings, QPel                    : No
Format settings, GMC                     : No warppoints
Format settings, Matrix                  : Default (H.263)
Muxing mode                              : Packed bitstream
Codec ID                                 : DX50
Codec ID/Hint                            : DivX 5
Duration                                 : 17mn 28s
Bit rate                                 : 1 501 Kbps
Width                                    : 640 pixels
Height                                   : 480 pixels
Display aspect ratio                     : 4:3
Frame rate                               : 25.000 fps
Color space                              : YUV
Chroma subsampling                       : 4:2:0
Bit depth                                : 8 bits
Scan type                                : Progressive
Compression mode                         : Lossy
Bits/(Pixel*Frame)                       : 0.195
Stream size                              : 188 MiB (87%)
Writing library                          : DivX 6.2.5 (UTC 2006-06-16)
Audio
ID                                       : 1
Format                                   : MPEG Audio
Format version                           : Version 1
Format profile                           : Layer 2
Codec ID                                 : 50
Duration                                 : 17mn 28s
Bit rate mode                            : Constant
Bit rate                                 : 224 Kbps
Channel(s)                               : 2 channels
Sampling rate                            : 48.0 KHz
Compression mode                         : Lossy
Stream size                              : 28.0 MiB (13%)
Alignment                                : Split accross interleaves
Interleave, duration                     : 40 ms (1.00 video frame)
Interleave, preload duration             : 500 ms

Скриншоты

некоторые пояснения по поводу путаницы в нумерации частей антологии фильмов Кобрина

Есть два порядка нумерации фильмов по частям/dvd-дискам фигурирующих в раздачах на трекере:
первый (можно сказать, официальная (она же единственная) антология сделанная учеником Владимира Кобрина - Николаем Широким):
№01 - Future Continuous (1993), Третья реальность-1 (1995), Третья реальность-2 (1996)
№02 - Homo Paradoksum-2 (1990), Homo Paradoksum-3 (1991), Серое время (1994)
№03 - Present Continuous (1989), Биопотенциалы (1988)
№04 - Последний сон Анатолия Васильевича (1990), Первый апокриф (1993)
№05 - Абсолютно из ничего (1997), Сон пляшущих человечков (1998), KrotoSkobrismus (1997), GraviDance (1999)
№06 - Homo Paradoksum (1989), ТУТ 1991 (1991), Шаги в никуда (1992)
№07 - Интервью Владимира Кобрина в разные годы (1980-1996), Полупроводники (1978)
№08 - Групповой портрет в натюрморте (1993), Транспорт веществ через биологические мембраны (1987), Самоорганизация биологических систем (1889)
№09 - Высокомолекулярные соединения (1984), Предмет и задачи биофизики (1982), Особенности кинетики биологических процессов (1983), Термодинамика биологических процессов (1986)
№10 - Явление радиоактивности (1977), Регуляция биологических процессов (1985), Молекулярная биофизика (1986)
№11 - Перенос электрона в биологических системах (1987), Биофизика ферментативных процессов (1987), Первичные фотобиологические процессы (1988)
№12 - Технология производства полупроводниковых приборов (1979), Физические основы квантовой теории (1980), Механика как наука (1981)
второй:
№1 - Абсолютно из ничего (1997), Последний сон Анатолия Васильевича (1990), Present continuous (1989), Биопотенциалы (1988)
№2 - Групповой портрет в натюрморте (1993), 1991=ТУТ (1991), Шаги в никуда (1992), Homo Paradoksum (1989), Предмет и задачи биофизики (1982), Самоорганизация биологических процессов (1989), Транспорт веществ через биологические мембраны (1987)
№3 - Future continuous (1993), Третья реальность-1 (1995), Третья реальность-2 (1996), Homo Paradoksum-2 (1991), Homo Paradoksum-3 (1991), Серое время (1994)
№4 - Первый апокриф (1993), KrotoSkobrismus (1997), Сон пляшущих человечков (1998), GraviDance (1999)
№5 - Интервью Владимира Кобрина (1980-1996)
[teatrix.ru].t4603.torrent 
Торрент: Зарегистрирован [ 2015-10-08 00:27 ] · 4DAC8762950A5C63A93FA1D731FC1E2C31197588

Скачать .torrent

Скачать

15 KB

Статус: проверено
Скачан: 0 раз
Размер: 1.41 GB
terms.php



Быстрый ответ

Имя:

      
Для отправки сообщений необходимо включить JavaScript
Показать сообщения:    

Текущее время: 11-Дек 05:20

Часовой пояс: UTC + 3


Вы можете начинать темы
Вы можете отвечать на сообщения
Вы не можете редактировать свои сообщения
Вы не можете удалять свои сообщения
Вы не можете голосовать в опросах
Вы не можете прикреплять файлы к сообщениям
Вы можете скачивать файлы