Необычайные похождения Диего Диеговича в стране большевиков. Диего Ривера. Русский след (Наталия Назарова) [2007, Россия, документальный фильм, DVDRip]


Статистика раздачи [Обновить пиров]
Размер:  479 MB   |    Зарегистрирован:  1 год 2 месяца   |    Скачан:  0 раз

Полного источника не было: Никогда

 
   
 
 
 

[Цитировать]

Необычайные похождения Диего Диеговича в стране большевиков. Диего Ривера. Русский след
Страна: Россия
Жанр: документальный фильм
Год выпуска: 2007
Продолжительность: 00:40:02
Перевод: Не требуется
Cубтитры: нет
Режиссер: Наталия Назарова
В ролях: Гуадалупе Ривера и Петр Вайль
Описание: Судьба мексиканского художника-монументалиста Диего Риверы связана с Россией многообразно: русские художницы Ангелина Белова и Мария Воробьёва-Стебельская родили ему детей, долгое время он приятельствовал с Л. Троцким, несколько раз вступал в компартию, дружил с прогрессивными деятелями молодого советского искусства С. Эйзенштейном, В. Маяковским, И. Эренбургом, наконец, именно в советскую Россию он приехал в последние годы жизни в надежде вылечиться от рака…
Огромная страна, находящаяся за тысячи километров от родной Мексики, казалось, притягивала Диего Риверу, как магнит. В фильме «Необычайные похождения Диего Диеговича в стране большевиков. Русский след Диего Ривера» впервые предоставляется возможность проследить историю и подоплеку многочисленных связей мексиканского мастера со страной Советов: связей любовных и политических, духовных и творческих, революционных и провоцирующих. Авторы проливают свет на причины непонятного притяжения пылкого мексиканского гиганта к России, пытаясь найти объяснение в горячем темпераменте самого Риверы, в характере его живописи. Свои версии страстной привязанности Диего к СССР высказывают в фильме и дочь художника Лупе Ривера – знаменитый историк марксизма-ленинизма, и писатель Петр Вайль.
А возможно, и зрителю удастся найти в фильме новые грани тонкой, но прочной связи уроженца далекой мексиканской деревушки Гуанахуато с молодым советским государством – этим рычащим вулканом революции, извергающим мифы настоящего и будущего.

Доп. информация:
Фильм «Необычайные похождения Диего Диеговича в стране большевиков. Русский след Диего Ривера» можно рассматривать как продолжение картины режиссера Наталии Назаровой «Фрида на фоне Фриды» о знаменитой художнице-мексиканке, жене Диего Ривера. Напомним, что фильм, созданный в 2004 году, был участником многих престижных международных и российский фестивалей и получил национальную премию «Лавр» за «Лучший документальный дебют в кино и на телевидении (2005); премию Изабеллы Лидделл за «Лучший фильм по искусству» на кинофестивале Энн Арбор в Мичигане, США (2006) и другие.
Релиз

КАК ВСЕГДА БОЛЬШОЕ СПАСИБО:
Рип katusha(77)

Качество видео: DVDRip
Формат видео: AVI
Видео: 640x480 (1.33:1), 25 fps, XviD MPEG-4 ~1437 kbps avg, 0.19 bit/pixel
Аудио: 48 kHz, AC3 Dolby Digital, 2/0 (L,R) ch, ~224 kbps

MediaInfo

General
Complete name : D:\Не розданное\Neobychaynie.pohozhdeniya.Diego.Diegovicha.fenixclub.avi
Format : AVI
Format/Info : Audio Video Interleave
File size : 479 MiB
Duration : 40mn 2s
Overall bit rate : 1 672 Kbps
Writing library : VirtualDub build 32706/release
Video
ID : 0
Format : MPEG-4 Visual
Format profile : Advanced Simple@L5
Format settings, BVOP : 1
Format settings, QPel : No
Format settings, GMC : No warppoints
Format settings, Matrix : Default (MPEG)
Codec ID : XVID
Codec ID/Hint : XviD
Duration : 40mn 2s
Bit rate : 1 438 Kbps
Width : 640 pixels
Height : 480 pixels
Display aspect ratio : 4:3
Frame rate : 25.000 fps
Color space : YUV
Chroma subsampling : 4:2:0
Bit depth : 8 bits
Scan type : Progressive
Compression mode : Lossy
Bits/(Pixel*Frame) : 0.187
Stream size : 412 MiB (86%)
Writing library : XviD 64
Audio
ID : 1
Format : AC-3
Format/Info : Audio Coding 3
Mode extension : CM (complete main)
Codec ID : 2000
Duration : 40mn 2s
Bit rate mode : Constant
Bit rate : 224 Kbps
Channel(s) : 2 channels
Channel positions : Front: L R
Sampling rate : 48.0 KHz
Bit depth : 16 bits
Compression mode : Lossy
Stream size : 64.2 MiB (13%)
Alignment : Aligned on interleaves
Interleave, duration : 40 ms (1.00 video frame)
Interleave, preload duration : 512 ms

Скриншоты

[teatrix.ru].t4610.torrent 
Торрент: Зарегистрирован [ 2015-10-08 00:27 ] · 1DA72F70F1988D823291E338E9FBAB0330B7CDA4

Скачать .torrent

Скачать

19 KB

Статус: проверено
Скачан: 0 раз
Размер: 479 MB
terms.php



Быстрый ответ

Имя:

      
Для отправки сообщений необходимо включить JavaScript
Показать сообщения:    

Текущее время: 10-Дек 19:34

Часовой пояс: UTC + 3


Вы можете начинать темы
Вы можете отвечать на сообщения
Вы не можете редактировать свои сообщения
Вы не можете удалять свои сообщения
Вы не можете голосовать в опросах
Вы не можете прикреплять файлы к сообщениям
Вы можете скачивать файлы