Артель (Сергей Лозница) [2006, Россия, документальное кино, DVDRip] Original Rus


Статистика раздачи [Обновить пиров]
Размер:  376 MB   |    Зарегистрирован:  1 год 2 месяца   |    Скачан:  0 раз

Полного источника не было: Никогда

 
   
 
 
 

[Цитировать]

Артель
Страна: Россия
Жанр: документальное кино
Год выпуска: 2006
Продолжительность: 00:30:49
Перевод: Не требуется
Cубтитры: нет
Оригинальная аудиодорожка: русский
Режиссер: Сергей Лозница
В ролях: Кузьма Васильевич Лайкачев, Кузьма Лайкачев, Сергей Лайкачев, Полина Лайкачева
Описание: Пространство жизни иногда сводится к очень простым вещам. Белое небо, белый снег, линия горизонта, ветер, фигура человека, вгрызающегося в лед. В толще льда человек прорубает лунку. Для него, - это и есть возможность жить. Кажущаяся простота жизни – это все, что мы можем увидеть. Может быть, иногда, нам доступно еще направление потока. 30-минутное созерцание непростого труда рыбаков в суровых северных условиях. Без музыкального сопровождения и практически лишенное диалогов.
Доп. информация:
Завершился Карловарский фестиваль -- крупнейшее кинособытие Восточной Европы. То, что Карловы Вары окончательно закрепили за собой центральное место в киножизни Восточной Европы, стало ясно в минувшую субботу, когда были вручены призы 42-го фестиваля. В конкурсе документальных фильмов до 30 мин. победила 'Артель' Сергея Лозницы, которого в фестивальном каталоге не постеснялись назвать 'классиком русского документального кино'. И правильно, хотя и несколько преждевременно -- режиссеру немногим за сорок. Лозница, самой известной работой которого, наверное, была монтажная 'Блокада', снимает кино о работе -- ее комических и трагических, скучных и веселых проявлениях. Аскетизмом стиля не уступает Брессону. Несколько десятков черно-белых, статичных кадров, снятых на 35-мм пленку; никаких склеек -- долгие планы монтируются, как у раннего Джармуша, через затемнение. Один день рыболовецкой артели на Белом море. Первые минуты -- зрительская тоска, потом -- неожиданный резонанс с монотонным, безумным, жизнеутверждающим ритмом движений людей, нашедших свое место в мире. Может быть, потому, что никогда и не искали. Итог ошеломляет и внушает эйфорию, а один из мужиков-рыбаков, машущий напоследок в камеру, снимает ненужную многозначительность.
Релиз

КАК ВСЕГДА БОЛЬШОЕ СПАСИБО:
Рип katusha(77)

Качество видео: DVDRip
Формат видео: AVI
Видео: 720x432 (1.67:1), 25 fps, XviD MPEG-4 ~1441 kbps avg, 0.19 bit/pixel
Аудио: 48 kHz, AC3 Dolby Digital, 2/0 (L,R) ch, ~256 kbps

MediaInfo

General
Complete name : D:\Не розданное\Artel.avi
Format : AVI
Format/Info : Audio Video Interleave
File size : 376 MiB
Duration : 30mn 49s
Overall bit rate : 1 707 Kbps
Writing library : VirtualDub build 32706/release
Video
ID : 0
Format : MPEG-4 Visual
Format profile : Advanced Simple@L5
Format settings, BVOP : 1
Format settings, QPel : No
Format settings, GMC : No warppoints
Format settings, Matrix : Default (MPEG)
Codec ID : XVID
Codec ID/Hint : XviD
Duration : 30mn 49s
Bit rate : 1 441 Kbps
Width : 720 pixels
Height : 432 pixels
Display aspect ratio : 1.667
Frame rate : 25.000 fps
Color space : YUV
Chroma subsampling : 4:2:0
Bit depth : 8 bits
Scan type : Progressive
Compression mode : Lossy
Bits/(Pixel*Frame) : 0.185
Stream size : 318 MiB (84%)
Writing library : XviD 64
Audio
ID : 1
Format : AC-3
Format/Info : Audio Coding 3
Mode extension : CM (complete main)
Codec ID : 2000
Duration : 30mn 49s
Bit rate mode : Constant
Bit rate : 256 Kbps
Channel(s) : 2 channels
Channel positions : Front: L R
Sampling rate : 48.0 KHz
Bit depth : 16 bits
Compression mode : Lossy
Stream size : 56.4 MiB (15%)
Alignment : Aligned on interleaves
Interleave, duration : 40 ms (1.00 video frame)
Interleave, preload duration : 512 ms

Скриншоты

[teatrix.ru].t4611.torrent 
Торрент: Зарегистрирован [ 2015-10-08 00:27 ] · BD0FC7FBC1D54BB3D02FA3CD8EA728B9290364E7

Скачать .torrent

Скачать

15 KB

Статус: проверено
Скачан: 0 раз
Размер: 376 MB
terms.php



Быстрый ответ

Имя:

      
Для отправки сообщений необходимо включить JavaScript
Показать сообщения:    

Текущее время: 08-Дек 07:07

Часовой пояс: UTC + 3


Вы можете начинать темы
Вы можете отвечать на сообщения
Вы не можете редактировать свои сообщения
Вы не можете удалять свои сообщения
Вы не можете голосовать в опросах
Вы не можете прикреплять файлы к сообщениям
Вы можете скачивать файлы