Ульяна Лопаткина, или Танцы по будням и в праздники (Сергей Ландо) [2007, Россия, Фильм-элегия, документальное кино, DVDRip] Original Rus


 

[Цитировать]

Ульяна Лопаткина, или Танцы по будням и в праздники
Страна: Россия
Жанр: Фильм-элегия, документальное кино
Год выпуска: 2006
Продолжительность: 00:29:32
Перевод: Не требуется
Cубтитры: нет
Оригинальная аудиодорожка: русский
Режиссер: Сергей Ландо
В ролях: Ульяна Лопаткина
Описание: Документальный фильм Сергея Ландо «Ульяна Лопаткина или танцы по будням и в праздники» представляет собой своеобразный видео-этюд на тему «сквозь тернии к звездам». Фильм позволяет заглянуть за кулисы парадного мира театра и увидеть собственными глазами, насколько нелегко дается танцору высокое искусство балета. Терпение, труд и упорство – вот качества, которые закаляют и совершенствуют настоящую балерину. Ежедневно приходится преодолевать усталость, бороться с упадком сил, душить слезы слабости – и так всю жизнь, начиная с самого детства. Прима-балерина Мариинского театра Ульяна Лопаткина уже прошла этот путь, но ей некогда думать о славе – необходимо постоянно оттачивать свое мастерство, никогда не останавливаясь на достигнутом.
Ульяна Лопаткина - прима-балерина Мариинского театра, народная артистка России, получившая в 1998 году титул "Божественная", - прервала карьеру ради своей маленькой дочки. Она смогла с триумфом вернуться в балет после длительного перерыва.

Качество видео: DVDRip
Формат видео: AVI
Видео: 640x480 (1.33:1), 25 fps, XviD MPEG-4 ~1421 kbps avg, 0.19 bit/pixel
Аудио: 48 kHz, AC3 Dolby Digital, 2/0 (L,R) ch, ~256 kbps

MediaInfo

General
Complete name : D:\Не розданное\UlyanaLopatkina.avi
Format : AVI
Format/Info : Audio Video Interleave
File size : 356 MiB
Duration : 29mn 32s
Overall bit rate : 1 687 Kbps
Writing library : VirtualDub build 32706/release
Video
ID : 0
Format : MPEG-4 Visual
Format profile : Advanced Simple@L5
Format settings, BVOP : 1
Format settings, QPel : No
Format settings, GMC : No warppoints
Format settings, Matrix : Default (MPEG)
Codec ID : XVID
Codec ID/Hint : XviD
Duration : 29mn 32s
Bit rate : 1 422 Kbps
Width : 640 pixels
Height : 480 pixels
Display aspect ratio : 4:3
Frame rate : 25.000 fps
Color space : YUV
Chroma subsampling : 4:2:0
Bit depth : 8 bits
Scan type : Progressive
Compression mode : Lossy
Bits/(Pixel*Frame) : 0.185
Stream size : 300 MiB (84%)
Writing library : XviD 64
Audio
ID : 1
Format : AC-3
Format/Info : Audio Coding 3
Mode extension : CM (complete main)
Codec ID : 2000
Duration : 29mn 32s
Bit rate mode : Constant
Bit rate : 256 Kbps
Channel(s) : 2 channels
Channel positions : Front: L R
Sampling rate : 48.0 KHz
Bit depth : 16 bits
Compression mode : Lossy
Stream size : 54.1 MiB (15%)
Alignment : Aligned on interleaves
Interleave, duration : 40 ms (1.00 video frame)
Interleave, preload duration : 512 ms

Скриншоты





Показать сообщения:    

Текущее время: 05-Дек 01:26

Часовой пояс: UTC + 3


Вы не можете начинать темы
Вы не можете отвечать на сообщения
Вы не можете редактировать свои сообщения
Вы не можете удалять свои сообщения
Вы не можете голосовать в опросах
Вы не можете прикреплять файлы к сообщениям
Вы не можете скачивать файлы