Смотри как умирают дети (Егор Баранов) [2008, Россия, документальный, DVDRip-AVC] Original Rus


Статистика раздачи [Обновить пиров]
Размер:  156 MB   |    Зарегистрирован:  1 год 1 месяц   |    Скачан:  0 раз

Полного источника не было: Никогда

 
   
 
 
 

[Цитировать]

Смотри как умирают дети- -Страна: РФ
Жанр: Документальный
Год выпуска: 2008
Продолжительность: 11 минут
Оригинальная аудиодорожка: русский
-Режиссер: Егор Баранов-Описание: История подросткового недомыслия.-Качество видео: DVDRip-AVC
Формат видео: MP4
Видео: 720*576=> 787*576, 25.000 fps, AVC, 1 739 kbps avg 0.168 bit/pixel
Аудио: AAC 48 kHz, 2/0 (L,R) ch, 192 Kbps
-

MediaInfo

General
Complete name : G:\Bugaga\пашечка\restoracia\Smotri.mp4
Format : MPEG-4
Format profile : Base Media / Version 2
Codec ID : mp42
File size : 156 MiB
Duration : 11mn 19s
Overall bit rate : 1 932 Kbps
Encoded date : UTC 2012-02-09 04:27:03
Tagged date : UTC 2012-02-09 04:27:03
©TIM : 00:00:00:00
©TSC : 25
©TSZ : 1
Video
ID : 1
Format : AVC
Format/Info : Advanced Video Codec
Format profile : Main@L3.1
Format settings, CABAC : Yes
Format settings, ReFrames : 3 frames
Codec ID : avc1
Codec ID/Info : Advanced Video Coding
Duration : 11mn 0s
Bit rate : 1 739 Kbps
Width : 720 pixels
Height : 576 pixels
Display aspect ratio : 4:3
Frame rate mode : Constant
Frame rate : 25.000 fps
Standard : PAL
Color space : YUV
Chroma subsampling : 4:2:0
Bit depth : 8 bits
Scan type : Interlaced
Scan order : Bottom Field First
Bits/(Pixel*Frame) : 0.168
Stream size : 141 MiB (90%)
Language : English
Encoded date : UTC 2012-02-09 04:27:03
Tagged date : UTC 2012-02-09 04:27:03
Material_Duration : 679200
Material_StreamSize : 147653283
Material_FrameCount : 16980
Audio
ID : 2
Format : AAC
Format/Info : Advanced Audio Codec
Format profile : LC
Codec ID : 40
Duration : 11mn 19s
Bit rate mode : Variable
Bit rate : 192 Kbps
Maximum bit rate : 292 Kbps
Channel(s) : 2 channels
Channel positions : Front: L R
Sampling rate : 48.0 KHz
Compression mode : Lossy
Stream size : 15.3 MiB (10%)
Language : English
Encoded date : UTC 2012-02-09 04:27:03
Tagged date : UTC 2012-02-09 04:27:03
Material_Duration : 679253
Material_StreamSize : 16079200

Скриншоты




Короткометражные фильмы Егора Баранова (авторские раздачи)

Зёрна
Под окнами ночного города
Не случилось
Смотри как умирают дети
[teatrix.ru].t4617.torrent 
Торрент: Зарегистрирован [ 2015-10-08 00:27 ] · 8C972006EED5C9BF4D0E03C00B984C7C4386D1CB

Скачать .torrent

Скачать

13 KB

Статус: проверено
Скачан: 0 раз
Размер: 156 MB
terms.php



Быстрый ответ

Имя:

      
Для отправки сообщений необходимо включить JavaScript
Показать сообщения:    

Текущее время: 06-Дек 13:14

Часовой пояс: UTC + 3


Вы можете начинать темы
Вы можете отвечать на сообщения
Вы не можете редактировать свои сообщения
Вы не можете удалять свои сообщения
Вы не можете голосовать в опросах
Вы не можете прикреплять файлы к сообщениям
Вы можете скачивать файлы