Всё течёт / Panta Rhei (Берт Ханстра / Bert Haanstra) [1951, Нидерланды, документальная короткометражка, DVDRip]


Статистика раздачи [Обновить пиров]
Размер:  100 MB   |    Зарегистрирован:  1 год 1 месяц   |    Скачан:  0 раз

Полного источника не было: Никогда

 
   
 
 
 

[Цитировать]

Всё течёт / Panta Rhei
Страна: Нидерланды
Жанр: документальная короткометражка
Год выпуска: 1951
Продолжительность: 9:55
Перевод: Не требуется
Режиссер: Берт Ханстра / Bert Haanstra
Описание: "Πάντα ῥεῖ καὶ οὐδὲν μένει" - сказал Гераклит Эфесский - "Все течёт, все изменяется":
лучи, волны и облака, расцветающие цветы и листья, подхваченные ветром — непрекращающаяся смена неисчерпаемых конфигураций природы.

скрытый текст

фильмы Хаанстра на трекере:
к\м Зеркало Голландии (1950) http://teatrix.ru/viewtopic.php?t=4622
к\м Всё течёт (1951) http://teatrix.ru/viewtopic.php?t=4621
к\м Зоо (1962) http://teatrix.ru/viewtopic.php?t=4623
Голландец (1963) http://teatrix.ru/viewtopic.php?t=4625
Качество видео: DVDRip
Формат видео: AVI
Видео: Video: Xvid 576x432 25.00fps 1308kbps [Video 0]
Аудио: Audio: MPEG Audio Layer 3 32000Hz stereo 82kbps [Audio 1]

MediaInfo

General
Complete name : Q:\Хаанстра, Берт\panta rhei - haanstra.avi
Format : AVI
Format/Info : Audio Video Interleave
File size : 99.6 MiB
Duration : 9mn 55s
Overall bit rate : 1 401 Kbps
Writing application : VirtualDubMod 1.5.4.1 (build 2178/release)
Writing library : VirtualDubMod build 2178/release
Video
ID : 0
Format : MPEG-4 Visual
Format profile : Advanced Simple@L5
Format settings, BVOP : Yes
Format settings, QPel : No
Format settings, GMC : No warppoints
Format settings, Matrix : Custom
Codec ID : XVID
Codec ID/Hint : XviD
Duration : 9mn 55s
Bit rate : 1 309 Kbps
Width : 576 pixels
Height : 432 pixels
Display aspect ratio : 4:3
Frame rate : 25.000 fps
Color space : YUV
Chroma subsampling : 4:2:0
Bit depth : 8 bits
Scan type : Progressive
Compression mode : Lossy
Bits/(Pixel*Frame) : 0.210
Stream size : 93.0 MiB (93%)
Writing library : XviD 1.2.0.dev47 (UTC 2006-11-01)
Audio
ID : 1
Format : MPEG Audio
Format version : Version 1
Format profile : Layer 3
Mode : Joint stereo
Mode extension : MS Stereo
Codec ID : 55
Codec ID/Hint : MP3
Duration : 9mn 55s
Bit rate mode : Variable
Bit rate : 82.1 Kbps
Nominal bit rate : 96.0 Kbps
Channel(s) : 2 channels
Sampling rate : 32.0 KHz
Compression mode : Lossy
Stream size : 5.83 MiB (6%)
Alignment : Aligned on interleaves
Interleave, duration : 36 ms (0.90 video frame)
Interleave, preload duration : 575 ms
Writing library : LAME3.97
Encoding settings : -m j -V 4 -q 2 -lowpass 15.1 --abr 96
Language : Nepali

Скриншоты

[teatrix.ru].t4621.torrent 
Торрент: Зарегистрирован [ 2015-10-08 00:27 ] · E9EB0301E4886F90EFE5D20A892BDDA08AE8869A

Скачать .torrent

Скачать

16 KB

Статус: проверено
Скачан: 0 раз
Размер: 100 MB
terms.php



Быстрый ответ

Имя:

      
Для отправки сообщений необходимо включить JavaScript
Показать сообщения:    

Текущее время: 05-Дек 07:30

Часовой пояс: UTC + 3


Вы можете начинать темы
Вы можете отвечать на сообщения
Вы не можете редактировать свои сообщения
Вы не можете удалять свои сообщения
Вы не можете голосовать в опросах
Вы не можете прикреплять файлы к сообщениям
Вы можете скачивать файлы