Зеркало Голландии / Spiegel van Holland (Берт Ханстра / Bert Haanstra) [1950, Нидерланды, документальный, короткометражка, DVDRip]


Статистика раздачи [Обновить пиров]
Размер:  99 MB   |    Зарегистрирован:  1 год 1 месяц   |    Скачан:  0 раз

Полного источника не было: Никогда

 
   
 
 
 

[Цитировать]

Зеркало Голландии / Spiegel van Holland
Страна: Нидерланды
Жанр: документальный, короткометражка
Год выпуска: 1950
Продолжительность: 09:02
Перевод: Не требуется
Cубтитры: нет
Режиссер: Берт Ханстра / Bert Haanstra
Описание: Перевернутая камера скользит над ветряными мельницами, лодкой под парусом, коровами, деревьями, домами, отраженными в голландских реках, озерах и каналах.

скрытый текст

фильмы Хаанстра на трекере:
к\м Зеркало Голландии (1950) http://teatrix.ru/viewtopic.php?t=4622
к\м Всё течёт (1951) http://teatrix.ru/viewtopic.php?t=4621
к\м Зоо (1962) http://teatrix.ru/viewtopic.php?t=4623
Голландец (1963) http://teatrix.ru/viewtopic.php?t=4625
За короткометражки Хаанстра на трекере благодарность jancsolover с КГ!
Качество видео: DVDRip
Формат видео: AVI
Видео: Video: Xvid 576x432 25.00fps 1438kbps [Video 0]
Аудио: Audio: MPEG Audio Layer 3 32000Hz stereo 84kbps [Audio 1]

MediaInfo

General
Complete name : Q:\Хаанстра, Берт\spiegel van holland - haanstra.avi
Format : AVI
Format/Info : Audio Video Interleave
File size : 99.2 MiB
Duration : 9mn 2s
Overall bit rate : 1 533 Kbps
Writing application : VirtualDubMod 1.5.4.1 (build 2178/release)
Writing library : VirtualDubMod build 2178/release
Video
ID : 0
Format : MPEG-4 Visual
Format profile : Advanced Simple@L5
Format settings, BVOP : Yes
Format settings, QPel : No
Format settings, GMC : No warppoints
Format settings, Matrix : Custom
Codec ID : XVID
Codec ID/Hint : XviD
Duration : 9mn 2s
Bit rate : 1 438 Kbps
Width : 576 pixels
Height : 432 pixels
Display aspect ratio : 4:3
Frame rate : 25.000 fps
Color space : YUV
Chroma subsampling : 4:2:0
Bit depth : 8 bits
Scan type : Progressive
Compression mode : Lossy
Bits/(Pixel*Frame) : 0.231
Stream size : 93.1 MiB (94%)
Writing library : XviD 1.2.0.dev47 (UTC 2006-11-01)
Audio
ID : 1
Format : MPEG Audio
Format version : Version 1
Format profile : Layer 3
Mode : Joint stereo
Mode extension : MS Stereo
Codec ID : 55
Codec ID/Hint : MP3
Duration : 9mn 2s
Bit rate mode : Variable
Bit rate : 84.7 Kbps
Nominal bit rate : 96.0 Kbps
Channel(s) : 2 channels
Sampling rate : 32.0 KHz
Compression mode : Lossy
Stream size : 5.48 MiB (6%)
Alignment : Aligned on interleaves
Interleave, duration : 36 ms (0.90 video frame)
Interleave, preload duration : 503 ms
Writing library : LAME3.97
Encoding settings : -m j -V 4 -q 2 -lowpass 15.1 --abr 96
Language : Nepali

Скриншот c названием фильма

Скриншоты

[teatrix.ru].t4622.torrent 
Торрент: Зарегистрирован [ 2015-10-08 00:27 ] · 49D506F9BB779F3551C560857E7BAA086B7DCE3B

Скачать .torrent

Скачать

16 KB

Статус: проверено
Скачан: 0 раз
Размер: 99 MB
terms.php



Быстрый ответ

Имя:

      
Для отправки сообщений необходимо включить JavaScript
Показать сообщения:    

Текущее время: 07-Дек 19:27

Часовой пояс: UTC + 3


Вы можете начинать темы
Вы можете отвечать на сообщения
Вы не можете редактировать свои сообщения
Вы не можете удалять свои сообщения
Вы не можете голосовать в опросах
Вы не можете прикреплять файлы к сообщениям
Вы можете скачивать файлы