Зоо / Зоопарк / ZOO (Берт Хаанстра / Bert Haanstra) [1962, Нидерланды, документальный, короткометражка, DVDRip]


Статистика раздачи [Обновить пиров]
Размер:  121 MB   |    Зарегистрирован:  1 год 2 месяца   |    Скачан:  0 раз

Полного источника не было: Никогда

 
   
 
 
 

[Цитировать]

Зоопарк / ZOO
Страна: Голандия
Жанр: документальный, короткометражка
Год выпуска: 1962
Продолжительность: 11:02
Перевод: Не требуется
Cубтитры: нет
Режиссер: Берт Хаанстра / Bert Haanstra
Описание: Джазовая импровизация снятая по методу Вертовского "Киноглаза": кто же на кого смотрит в зоопарке?

скрытый текст

фильмы Хаанстра на трекере:
Голландец (1963) http://teatrix.ru/viewtopic.php?t=4625
Качество видео: DVDRip
Формат видео: AVI
Видео: Video: Xvid 624x464 25.00fps 1459kbps [Video 0]
Аудио: Audio: MPEG Audio Layer 3 48000Hz mono 62kbps [Audio 1]

MediaInfo

General
Complete name : Q:\Хаанстра, Берт\Bert Haanstra - Zoo.avi
Format : AVI
Format/Info : Audio Video Interleave
File size : 121 MiB
Duration : 11mn 2s
Overall bit rate : 1 535 Kbps
Writing application : VirtualDubMod 1.5.10.2 (build 2540/release)
Writing library : VirtualDubMod build 2540/release
Video
ID : 0
Format : MPEG-4 Visual
Format profile : Advanced Simple@L5
Format settings, BVOP : Yes
Format settings, QPel : No
Format settings, GMC : No warppoints
Format settings, Matrix : Default (MPEG)
Codec ID : XVID
Codec ID/Hint : XviD
Duration : 11mn 2s
Bit rate : 1 460 Kbps
Width : 624 pixels
Height : 464 pixels
Display aspect ratio : 4:3
Frame rate : 25.000 fps
Color space : YUV
Chroma subsampling : 4:2:0
Bit depth : 8 bits
Scan type : Progressive
Compression mode : Lossy
Bits/(Pixel*Frame) : 0.202
Stream size : 115 MiB (95%)
Writing library : XviD 1.1.0 (UTC 2005-11-22)
Audio
ID : 1
Format : MPEG Audio
Format version : Version 1
Format profile : Layer 3
Codec ID : 55
Codec ID/Hint : MP3
Duration : 11mn 2s
Bit rate mode : Variable
Bit rate : 62.5 Kbps
Minimum bit rate : 32.0 Kbps
Channel(s) : 1 channel
Sampling rate : 48.0 KHz
Compression mode : Lossy
Stream size : 4.94 MiB (4%)
Alignment : Aligned on interleaves
Interleave, duration : 24 ms (0.60 video frame)
Interleave, preload duration : 571 ms
Writing library : LAME3.97b
Encoding settings : -m m -V 5 -q 3 -lowpass 16 --vbr-new -b 32

Скриншот c названием фильма

Скриншоты

[teatrix.ru].t4623.torrent 
Торрент: Зарегистрирован [ 2015-10-08 00:27 ] · C0B8C719456377B51E0443790D7875607B2D694A

Скачать .torrent

Скачать

19 KB

Статус: проверено
Скачан: 0 раз
Размер: 121 MB
terms.php



Быстрый ответ

Имя:

      
Для отправки сообщений необходимо включить JavaScript
Показать сообщения:    

Текущее время: 11-Дек 07:16

Часовой пояс: UTC + 3


Вы можете начинать темы
Вы можете отвечать на сообщения
Вы не можете редактировать свои сообщения
Вы не можете удалять свои сообщения
Вы не можете голосовать в опросах
Вы не можете прикреплять файлы к сообщениям
Вы можете скачивать файлы