Берлин: Симфония большого города / Berlin: Die Sinfonie der Grosstadt (Вальтер Руттманн / Walter Ruttmann) [1927, документальный, DVDRip-AVC]


Статистика раздачи [Обновить пиров]
Размер:  1.45 GB   |    Зарегистрирован:  1 год 1 месяц   |    Скачан:  0 раз

Полного источника не было: Никогда

 
   
 
 
 

[Цитировать]

Берлин: Симфония большого города / Berlin: Die Sinfonie der GrosstadtГод выпуска: 1927
Страна: Германия
Жанр: документальный
Продолжительность: 01:04:23
Перевод: Не требуется
Cубтитры: нет
Навигация по главам: есть
Режиссер: Вальтер Руттманн / Walter Ruttmann
Сценарий: Карл Фройнд / Karl Freund, Вальтер Руттманн / Walter Ruttmann, Карл Майер / Carl Mayer
Продюсер: Карл Фройнд / Karl Freund
Оператор: Роберт Баберске / Robert Baberske, Раймар Кунце / Reimar Kuntze, Ласло Шэффер / László Schäffer, Карл Фройнд / Karl Freund
Композитор: Эдмунд Мизел / Edmund Meisel
В ролях: Пауль фон Гинденбург (играет самого себя, в титрах не указан)-Мировая премьера: 23 сентября 1927-Описание: Единственным актером фильма является Берлин - гигант, молох, титан. Симфония складывается из миллионов человеческих лиц, которые в кадре сведены друг с другом и со всем тем, что сопутствует, движется мимо, спешит, отдыхает... В кадре уличная суета, вращающиеся детали машин, танцующие артистки кабаре, мальчишки-газетчики, вальяжные бюргеры, нагромождения зданий, семафоры.-Рейтинг
kinopoisk.ru: 8.465 (116)
imdb.com: 7.80 (1 489)-Качество: DVDRip
Формат: Matroska
Видеокодек: AVC
Аудиокодек: AC3
Видео: 672x536 => 716x536 (1.336); 2998 Kbps; 25 fps
Аудио: German; AC3; 224 Kbps; CBR; 2 ch / Edmund Meisel-

Screenshots


-

MI

General
Unique ID : 244683736553644666729395724462025373872 (0xB8145F9E91AF71B486D2496A37F878B0)
Complete name : Berlin.Die.Sinfonie.der.Grosstadt.1927.DVD.Ger-Skazhutin.mkv
Format : Matroska
Format version : Version 2
File size : 1.45 GiB
Duration : 1h 4mn
Overall bit rate : 3 224 Kbps
Encoded date : UTC 2011-12-27 08:22:09
Writing application : mkvmerge v5.2.0 ('I can't explain') built on Dec 18 2011 18:12:03
Writing library : libebml v1.2.3 + libmatroska v1.3.0
Attachment : Yes / Yes
Video
ID : 1
Format : AVC
Format/Info : Advanced Video Codec
Format profile : High@L4.0
Format settings, CABAC : Yes
Format settings, ReFrames : 15 frames
Codec ID : V_MPEG4/ISO/AVC
Duration : 1h 4mn
Bit rate : 3 000 Kbps
Width : 672 pixels
Height : 536 pixels
Display aspect ratio : 4:3
Original display aspect ratio : 4:3
Frame rate : 25.000 fps
Color space : YUV
Chroma subsampling : 4:2:0
Bit depth : 8 bits
Scan type : Progressive
Bits/(Pixel*Frame) : 0.333
Stream size : 1.32 GiB (91%)
Title : Berlin.Die.Sinfonie.der.Grosstadt.1927.DVD.Ger-Skazhutin
Writing library : x264 core 120 r2120 0c7dab9
Encoding settings : cabac=1 / ref=15 / deblock=1:-2:-1 / analyse=0x3:0x133 / me=umh / subme=11 / psy=1 / psy_rd=1.10:0.00 / mixed_ref=1 / me_range=48 / chroma_me=1 / trellis=2 / 8x8dct=1 / cqm=0 / deadzone=21,11 / fast_pskip=0 / chroma_qp_offset=-2 / threads=12 / sliced_threads=0 / nr=0 / decimate=0 / interlaced=0 / bluray_compat=0 / constrained_intra=0 / bframes=13 / b_pyramid=2 / b_adapt=2 / b_bias=0 / direct=3 / weightb=1 / open_gop=0 / weightp=2 / keyint=250 / keyint_min=25 / scenecut=40 / intra_refresh=0 / rc=2pass / mbtree=0 / bitrate=3000 / ratetol=1.0 / qcomp=0.60 / qpmin=0 / qpmax=69 / qpstep=4 / cplxblur=20.0 / qblur=0.5 / ip_ratio=1.40 / pb_ratio=1.30 / aq=2:0.80
Language : German
Default : Yes
Forced : No
Matrix coefficients : BT.601-6 525, BT.1358 525, BT.1700 NTSC, SMPTE 170M
Audio
ID : 2
Format : AC-3
Format/Info : Audio Coding 3
Mode extension : CM (complete main)
Codec ID : A_AC3
Duration : 1h 4mn
Bit rate mode : Constant
Bit rate : 224 Kbps
Channel(s) : 2 channels
Channel positions : Front: L R
Sampling rate : 48.0 KHz
Bit depth : 16 bits
Compression mode : Lossy
Stream size : 103 MiB (7%)
Title : Edmund Meisel / AC3 2.0 @ 224 kbps
Language : German
Default : Yes
Forced : No
Menu
00:00:00.000 : en:Chapter 1
00:01:35.280 : en:Chapter 2
00:16:34.040 : en:Chapter 3
00:25:14.160 : en:Chapter 4
00:37:45.640 : en:Chapter 5
00:54:18.680 : en:Chapter 6
01:04:23.440 : en:Chapter 7

-
x264 logКод:y4m [info]: 672x536p 16:15 @ 25/1 fps (cfr)
x264 [info]: using SAR=16/15
x264 [info]: using cpu capabilities: MMX2 SSE2Fast SSSE3 FastShuffle SSE4.2 AVX
x264 [info]: profile High, level 4.0
x264 [info]: frame I:651 Avg QP:21.97 size: 40089
x264 [info]: frame P:22239 Avg QP:24.34 size: 19894
x264 [info]: frame B:73708 Avg QP:26.58 size: 13291
x264 [info]: consecutive B-frames: 3.8% 2.3% 4.5% 18.1% 50.4% 6.7% 1.2% 0.6% 3.6% 6.0% 2.4% 0.1% 0.2% 0.1%
x264 [info]: mb I I16..4: 2.8% 87.4% 9.8%
x264 [info]: mb P I16..4: 1.0% 24.5% 1.7% P16..4: 27.9% 32.5% 7.3% 1.8% 0.1% skip: 3.2%
x264 [info]: mb B I16..4: 0.3% 6.3% 0.3% B16..8: 34.1% 20.8% 4.5% direct:20.1% skip:13.6% L0:45.9% L1:41.8% BI:12.3%
x264 [info]: 8x8 transform intra:90.5% inter:71.4%
x264 [info]: direct mvs spatial:97.9% temporal:2.1%
x264 [info]: coded y,uvDC,uvAC intra: 95.2% 0.1% 0.0% inter: 62.6% 0.1% 0.0%
x264 [info]: i16 v,h,dc,p: 18% 56% 4% 22%
x264 [info]: i8 v,h,dc,ddl,ddr,vr,hd,vl,hu: 12% 10% 4% 9% 13% 13% 14% 12% 13%
x264 [info]: i4 v,h,dc,ddl,ddr,vr,hd,vl,hu: 14% 15% 3% 7% 13% 13% 14% 10% 12%
x264 [info]: i8c dc,h,v,p: 100% 0% 0% 0%
x264 [info]: Weighted P-Frames: Y:60.0% UV:0.0%
x264 [info]: ref P L0: 37.6% 13.0% 12.4% 7.2% 6.4% 4.2% 4.1% 2.3% 2.5% 1.8% 1.9% 1.5% 1.6% 1.3% 1.5% 0.6%
x264 [info]: ref B L0: 62.4% 12.4% 7.2% 3.8% 3.2% 2.3% 2.2% 1.4% 1.3% 1.1% 1.1% 0.9% 0.6% 0.3%
x264 [info]: ref B L1: 84.7% 15.3%
x264 [info]: kb/s:2998.43
encoded 96598 frames, 9.98 fps, 2998.43 kb/s
[teatrix.ru].t4629.torrent 
Торрент: Зарегистрирован [ 2015-10-08 00:27 ] · 1CA2AF948354D880118A096D9777F8D75289F3D7

Скачать .torrent

Скачать

15 KB

Статус: проверено
Скачан: 0 раз
Размер: 1.45 GB
terms.php



Быстрый ответ

Имя:

      
Для отправки сообщений необходимо включить JavaScript
Показать сообщения:    

Текущее время: 02-Дек 21:12

Часовой пояс: UTC + 3


Вы можете начинать темы
Вы можете отвечать на сообщения
Вы не можете редактировать свои сообщения
Вы не можете удалять свои сообщения
Вы не можете голосовать в опросах
Вы не можете прикреплять файлы к сообщениям
Вы можете скачивать файлы