Американский Фильм: О Создании Северо-Запада / American Movie: The Making of Northwestern (Крис Смит / Chris Smith) [1999, США, документальный, DVDRip] Sub (Rus) + Original (Eng)


Статистика раздачи [Обновить пиров]
Размер:  936 MB   |    Зарегистрирован:  1 год 1 месяц   |    Скачан:  0 раз

Полного источника не было: Никогда

 
   
 
 
 

[Цитировать]

Американский Фильм: О Создании Северо-Запада / American Movie: The Making of Northwestern
Страна: США
Жанр: документалистика
Год выпуска: 1999
Продолжительность: 01:41:24
Перевод: Субтитры Доп. инфо о переводе Rez
Cубтитры: русские
Оригинальная аудиодорожка: английский
Режиссер: Крис Смит / Chris Smith
В ролях: Марк Борчарт, Майк Шэнк, Том Шиммелс и др.
Описание: Это - документальный фильм о съемках независимого кино.
Марк Борчарт, режиссер из Милуоки напряженно работает над съемками своего независимого фильма ужасов "Coven" (Шабаш), но без должного финансирования и при недостатке планов, это становится практически невыполнимой задачей. Фильм освещает весь съемочный процесс Борчарта от написания сценария до непосредственно съемок, и все это перемежается съемками другого проекта - "Northwestern", фильма о "большой американской мечте". "Американское кино" вышло с подзаголовком "Как делался Northwestern", однако только первые 50 минут фильма рассказывают об этом. Остальной фильм - о том, как снимали "Coven".
Фильм был награжден Гран-при за Документалистику на фестивале в Санденс, в 1999. В 2004м "Американское кино" был назван "Нью Йорк Таймс" в числе "1,000 Величайших Фильмов, когда-либо снятых", а Международная Документальная Ассоциация назвала его в числе 20 лучших документальных фильмов, когда-либо снятых.
Если вы любите, а тем более сами снимаете кино - это то, что вам нужно. Шикарный документальный фильм о трудностях, с которыми сталкивается любой независимый творец. Яркие персоналии двух друзей, занимающихся съемками фильмов, немного черный юмор, очень меткие фразы. Пожалуй, лучшая документалка, которую я когда-либо смотрел.
Сэмпл: http://multi-up.com/604302
Качество видео: DVDRip
Формат видео: AVI
Видео: DivX, 640х480, 4:3, 25 fps, 1151 kbps
Аудио: mp3, 44 khz, 128 kbps, 2 channels
Формат субтитров: hardsub (неотключаемые)

MediaInfo

General
Complete name : J:\American Movie~1.avi
Format : AVI
Format/Info : Audio Video Interleave
File size : 936 MiB
Duration : 1h 41mn
Overall bit rate : 1 291 Kbps
Writing application : MEncoder SVN-r30881(20100311-gcc4.3.3)
Writing library : MPlayer
Video
ID : 0
Format : MPEG-4 Visual
Format profile : Simple@L1
Format settings, BVOP : No
Format settings, QPel : No
Format settings, GMC : No warppoints
Format settings, Matrix : Default (H.263)
Codec ID : DX50
Codec ID/Hint : DivX 5
Duration : 1h 41mn
Bit rate : 1 151 Kbps
Width : 640 pixels
Height : 480 pixels
Display aspect ratio : 4:3
Frame rate : 25.000 fps
Color space : YUV
Chroma subsampling : 4:2:0
Bit depth : 8 bits
Scan type : Progressive
Compression mode : Lossy
Bits/(Pixel*Frame) : 0.150
Stream size : 835 MiB (89%)
Writing library : Lavc52.58.0
Audio
ID : 1
Format : MPEG Audio
Format version : Version 1
Format profile : Layer 3
Mode : Joint stereo
Mode extension : MS Stereo
Codec ID : 55
Codec ID/Hint : MP3
Duration : 1h 41mn
Bit rate mode : Constant
Bit rate : 128 Kbps
Channel(s) : 2 channels
Sampling rate : 44.1 KHz
Compression mode : Lossy
Stream size : 92.8 MiB (10%)
Alignment : Aligned on interleaves
Interleave, duration : 26 ms (0.65 video frame)
Interleave, preload duration : 522 ms
Writing library : LAME3.98

Скриншот c названием фильма

Скриншоты







[teatrix.ru].t4633.torrent 
Торрент: Зарегистрирован [ 2015-10-08 00:27 ] · 5371C877B6C795C5ABAA4512CC88E343E80C9849

Скачать .torrent

Скачать

74 KB

Статус: проверено
Скачан: 0 раз
Размер: 936 MB
terms.php



Быстрый ответ

Имя:

      
Для отправки сообщений необходимо включить JavaScript
Показать сообщения:    

Текущее время: 03-Дек 18:38

Часовой пояс: UTC + 3


Вы можете начинать темы
Вы можете отвечать на сообщения
Вы не можете редактировать свои сообщения
Вы не можете удалять свои сообщения
Вы не можете голосовать в опросах
Вы не можете прикреплять файлы к сообщениям
Вы можете скачивать файлы