Жизнь за один день / Life in a Day (Кевин МакДональд / Kevin Macdonald, Наталия Андреадис / Natalia Andreadis, Лиза Коттрелл-Бентли / Lisa Cottrell-Bentley) [2011, США, Великобритания, драма, документальный, HDRip] VO + Sub Rus + Original Eng


Статистика раздачи [Обновить пиров]
Размер:  1.45 GB   |    Зарегистрирован:  1 год 1 месяц   |    Скачан:  0 раз

Полного источника не было: Никогда

 
   
 
 
 

[Цитировать]

Жизнь за один день / Life in a Day«Одна планета. 24 часа. 6 миллиардов точек зрения»-- Страна: США, Великобритания
Жанр: драма, документальный
Год выпуска: 2011
Продолжительность: 01:34:54
Перевод: Одноголосый закадровый
Cубтитры: русские R5 [Лицензия]
Оригинальная аудиодорожка: английский-Режиссер: Кевин МакДональд / Kevin Macdonald, Наталия Андреадис / Natalia Andreadis, Лиза Коттрелл-Бентли / Lisa Cottrell-Bentley
В ролях: Синди Баэр (играет саму себя), Моика (играет саму себя), Кэрин Вэйчтер (играет саму себя), Нироаки Аикава (играет самого себя), Боб Лигински мл. (играет самого себя), Дрэйк Шеннон (играет самого себя), Джаап Дейкстра (Paperboy - играет самого себя), Jaap Dijkstra (играет самого себя as a paperboy), Дэвид Жак (играет самого себя), Борис Гришкевич (играет самого себя), Эстер Бримова (играет саму себя), Шахин Наджафипур (играет самого себя)-Описание: 24 июля 2010 года тысячи людей со всего света прислали видеоклипы о своей жизни на YouTube. Они стали участниками проекта «Жизнь за один день» - исторического эксперимента по созданию документального фильма об одном дне из жизни планеты.-Сэмпл-Качество видео: HDRip (исx. BDRip (720p))
Формат видео: AVI
Видео кодек: XviD
Аудио кодек: AC3
Видео: 720x400 (16:9), 24 fps, XviD build 50 ~1602 kbps avg, 0.232 bit/pixel
Аудио: Russian; 48 kHz, AC3 Dolby Digital, 2/0 (L,R) ch, ~192.00 kbps avg
Аудио 2: English: 48 kHz, AC3 Dolby Digital, 3/2 (L,C,R,l,r) + LFE ch, ~384.00 kbps avg
Формат субтитров: softsub (SRT)

Cубтитры

5
00:00:47,075 --> 00:00:50,450
Мы попросили людей со всего света
снять то, как они живут,
6
00:00:50,533 --> 00:00:53,283
и ответить на несколько
простых вопросов.
7
00:00:54,367 --> 00:00:58,367
Мы получили 4500 часов
видеосъёмок из 192-х стран.
8
00:01:01,658 --> 00:01:06,950
Все они были сняты в один день -
24-го июля 2010-го года.
9
00:01:54,742 --> 00:01:56,117
Правда, красивый?
10
00:02:15,575 --> 00:02:17,783
Ты говоришь по-английски?
11
00:02:18,742 --> 00:02:19,533
Да.
12
00:02:19,950 --> 00:02:20,658
Какой...
13
00:02:22,117 --> 00:02:23,325
какой сегодня день?
14
00:02:23,408 --> 00:02:25,200
Да, я люблю двигать, двигать.
15
00:02:25,867 --> 00:02:30,075
Ладно, это лучший день в моей жизни.
16
00:02:30,867 --> 00:02:32,783
Нет, я спрашиваю...
17
00:02:32,867 --> 00:02:34,658
- Ах, какой сегодня день?
- Да.
18
00:02:35,242 --> 00:02:39,033
Это... Так, одну минутку.

MediaInfo

General
Complete name : C:\Users\Vaidutka\Videos\Zhizn.za.odin.den.2011.XviD.HDRip\Zhizn.za.odin.den.2011.XviD.HDRip.avi
Format : AVI
Format/Info : Audio Video Interleave
File size : 1.45 GiB
Duration : 1h 34mn
Overall bit rate : 2 192 Kbps
Writing application : VirtualDubMod 1.5.10.2 (build 2540/release)
Writing library : VirtualDubMod build 2540/release
Video
ID : 0
Format : MPEG-4 Visual
Format profile : Advanced Simple@L5
Format settings, BVOP : 2
Format settings, QPel : No
Format settings, GMC : No warppoints
Format settings, Matrix : Default (MPEG)
Codec ID : XVID
Codec ID/Hint : XviD
Duration : 1h 34mn
Bit rate : 1 602 Kbps
Width : 720 pixels
Height : 400 pixels
Display aspect ratio : 16:9
Frame rate : 24.000 fps
Color space : YUV
Chroma subsampling : 4:2:0
Bit depth : 8 bits
Scan type : Progressive
Compression mode : Lossy
Bits/(Pixel*Frame) : 0.232
Stream size : 1.06 GiB (73%)
Writing library : XviD 1.2.1 (UTC 2008-12-04)
Audio #1
ID : 1
Format : AC-3
Format/Info : Audio Coding 3
Mode extension : CM (complete main)
Codec ID : 2000
Duration : 1h 34mn
Bit rate mode : Constant
Bit rate : 192 Kbps
Channel(s) : 2 channels
Channel positions : Front: L R
Sampling rate : 48.0 KHz
Bit depth : 16 bits
Compression mode : Lossy
Stream size : 130 MiB (9%)
Alignment : Split accross interleaves
Interleave, duration : 42 ms (1.00 video frame)
Interleave, preload duration : 500 ms
Audio #2
ID : 2
Format : AC-3
Format/Info : Audio Coding 3
Mode extension : CM (complete main)
Codec ID : 2000
Duration : 1h 34mn
Bit rate mode : Constant
Bit rate : 384 Kbps
Channel(s) : 6 channels
Channel positions : Front: L C R, Side: L R, LFE
Sampling rate : 48.0 KHz
Bit depth : 16 bits
Compression mode : Lossy
Stream size : 261 MiB (18%)
Alignment : Split accross interleaves
Interleave, duration : 42 ms (1.00 video frame)
Interleave, preload duration : 500 ms

Скриншоты

[teatrix.ru].t4636.torrent 
Торрент: Зарегистрирован [ 2015-10-08 00:27 ] · C8D09CCEBF490B0F3A01715E31EC31ACCB2DDB57

Скачать .torrent

Скачать

15 KB

Статус: проверено
Скачан: 0 раз
Размер: 1.45 GB
terms.php



Быстрый ответ

Имя:

      
Для отправки сообщений необходимо включить JavaScript
Показать сообщения:    

Текущее время: 03-Дек 07:41

Часовой пояс: UTC + 3


Вы можете начинать темы
Вы можете отвечать на сообщения
Вы не можете редактировать свои сообщения
Вы не можете удалять свои сообщения
Вы не можете голосовать в опросах
Вы не можете прикреплять файлы к сообщениям
Вы можете скачивать файлы