Жизнь за один день / Life in a Day (Кевин МакДональд / Kevin Macdonald, Наталия Андреадис / Natalia Andreadis, Лиза Коттрелл-Бентли / Lisa Cottrell-Bentley) [2011, документальный, драма, BDRip 720p] Eng + Rus Sub


Статистика раздачи [Обновить пиров]
Размер:  4.37 GB   |    Зарегистрирован:  1 год 1 месяц   |    Скачан:  0 раз

Полного источника не было: Никогда

 
   
 
 
 

[Цитировать]

Жизнь за один деньLife in a Day«Одна планета. 24 часа. 6 миллиардов точек зрения»- Страна: США, Великобритания
Жанр: документальный, драма
Год выпуска: 2011
Продолжительность: 01:34:54-Перевод: отсутствует
Оригинальная аудио дорожка: английский
Субтитры: русские {R5}, английские-Режиссер: Кевин МакДональд / Kevin Macdonald, Наталия Андреадис / Natalia Andreadis, Лиза Коттрелл-Бентли / Lisa Cottrell-Bentley
В ролях: Синди Баэр (играет саму себя), Моика (играет саму себя), Кэрин Вэйчтер (играет саму себя), Нироаки Аикава (играет самого себя), Боб Лигински мл. (играет самого себя), Дрэйк Шеннон (играет самого себя), Джаап Дейкстра (Paperboy - играет самого себя), Jaap Dijkstra (играет самого себя as a paperboy), Дэвид Жак (играет самого себя), Борис Гришкевич (играет самого себя), Эстер Бримова (играет саму себя), Шахин Наджафипур (играет самого себя)
Описание: 24 июля 2010 года тысячи людей со всего света прислали видеоклипы о своей жизни на YouTube. Они стали участниками проекта «Жизнь за один день» - исторического эксперимента по созданию документального фильма об одном дне из жизни планеты.


MPAA: PG-13 - Детям до 13 лет просмотр не желателен-Раздача от: HQFans
Качество: BDRip/720p (by MySilu)
Формат: MKV
Видео: 1280x720, AVC, 24 fps, 5 087 kbps
Аудио: English / DTS / 5.1 / 48 kHz / 1509 kbps / 16-bit

Скриншоты

Sample

Media Info

General
Unique ID : 171866775535980381793200554594341593774 (0x814C56420715F6A78B0009F60EB1A2AE)
Complete name : Жизнь за один день__Life in a Day [2011.BDRip.720p.Eng.Subs]-MySilu.mkv
Format : Matroska
Format version : Version 2
File size : 4.37 GiB
Duration : 1h 34mn
Overall bit rate : 6 600 Kbps
Movie name : Жизнь за один день [2011, BDRip/720p]-MySilu
Encoded date : UTC 2011-11-14 09:56:51
Writing application : mkvmerge v4.0.0 ('The Stars were mine') сборка от Jun 6 2010 16:18:42
Writing library : libebml v1.0.0 + libmatroska v1.0.0
Attachment : Yes
Video
ID : 1
Format : AVC
Format/Info : Advanced Video Codec
Format profile : High@L4.1
Format settings, CABAC : Yes
Format settings, ReFrames : 8 frames
Codec ID : V_MPEG4/ISO/AVC
Duration : 1h 34mn
Bit rate : 5 087 Kbps
Width : 1 280 pixels
Height : 720 pixels
Display aspect ratio : 16:9
Frame rate : 24.000 fps
Color space : YUV
Chroma subsampling : 4:2:0
Bit depth : 8 bits
Scan type : Progressive
Bits/(Pixel*Frame) : 0.230
Stream size : 3.29 GiB (75%)
Title : Жизнь за один день [2011, BDRip/720p]-MySilu
Writing library : x264 core 119 r2106 07efeb4
Encoding settings : cabac=1 / ref=8 / deblock=1:-2:-2 / analyse=0x3:0x133 / me=umh / subme=9 / psy=1 / psy_rd=1.20:0.20 / mixed_ref=1 / me_range=16 / chroma_me=1 / trellis=2 / 8x8dct=1 / cqm=0 / deadzone=21,11 / fast_pskip=1 / chroma_qp_offset=-3 / threads=9 / sliced_threads=0 / nr=0 / decimate=0 / interlaced=0 / bluray_compat=0 / constrained_intra=0 / bframes=3 / b_pyramid=2 / b_adapt=2 / b_bias=0 / direct=3 / weightb=1 / open_gop=0 / weightp=2 / keyint=250 / keyint_min=2 / scenecut=40 / intra_refresh=0 / rc_lookahead=60 / rc=2pass / mbtree=1 / bitrate=5087 / ratetol=1.0 / qcomp=0.60 / qpmin=10 / qpmax=51 / qpstep=4 / cplxblur=20.0 / qblur=0.5 / vbv_maxrate=38000 / vbv_bufsize=38000 / nal_hrd=none / ip_ratio=1.40 / aq=1:1.00
Language : English
Audio
ID : 2
Format : DTS
Format/Info : Digital Theater Systems
Codec ID : A_DTS
Duration : 1h 34mn
Bit rate mode : Constant
Bit rate : 1 510 Kbps
Channel(s) : 6 channels
Channel positions : Front: L C R, Side: L R, LFE
Sampling rate : 48.0 KHz
Bit depth : 16 bits
Compression mode : Lossy
Stream size : 1.00 GiB (23%)
Title : Original [DTS 5.1@1536kbps/16-bit]
Language : English
Text #1
ID : 3
Format : UTF-8
Codec ID : S_TEXT/UTF8
Codec ID/Info : UTF-8 Plain Text
Title : Full {R5}
Language : Russian
Text #2
ID : 4
Format : UTF-8
Codec ID : S_TEXT/UTF8
Codec ID/Info : UTF-8 Plain Text
Language : English
[teatrix.ru].t4637.torrent 
Торрент: Зарегистрирован [ 2015-10-08 00:27 ] · 9EBB8B329298476CE037D9FE0F8016158901EAFD

Скачать .torrent

Скачать

12 KB

Статус: проверено
Скачан: 0 раз
Размер: 4.37 GB
terms.php



Быстрый ответ

Имя:

      
Для отправки сообщений необходимо включить JavaScript
Показать сообщения:    

Текущее время: 06-Дек 20:57

Часовой пояс: UTC + 3


Вы можете начинать темы
Вы можете отвечать на сообщения
Вы не можете редактировать свои сообщения
Вы не можете удалять свои сообщения
Вы не можете голосовать в опросах
Вы не можете прикреплять файлы к сообщениям
Вы можете скачивать файлы