Жизнь за один день / Life in a Day (Кевин МакДональд, Наталия Андреадис, Лиза Коттрелл-Бентли / Kevin McDonald, Natalia Andreadis, Lisa Cottrell-Bentley) [2011 г., документальный, драма, DVD5] R5 Sub rus + original [«Кармен Видео»]


Статистика раздачи [Обновить пиров]
Размер:  4.37 GB   |    Зарегистрирован:  1 год 1 месяц   |    Скачан:  0 раз

Полного источника не было: Никогда

 
   
 
 
 

[Цитировать]

-Жизнь за один день / Life in a Day-«Одна планета. 24 часа. 6 миллиардов точек зрения» -Год выпуска: 2011
Страна: США, Великобритания
Студия: LG, Scott Free Productions, YouTube
Жанр: документальный, драма
Год выпуска: 2011
Мировая премьера: 27 января 2011
Российская премьера: 2 июня 2011, «Каравелла DDC»
Украинская премьера: 22 сентября 2011
Дата выхода DVD: 2 ноября 2011, «Кармен Видео»
Дата выхода Blu-Ray: 2 ноября 2011, «Кармен Видео»
Продолжительность: 01:31:06
Перевод: Субтитры [Лицензия]
Русские субтитры: русские, украинские-Режиссер: Кевин МакДональд, Наталия Андреадис, Лиза Коттрелл-Бентли / Kevin McDonald, Natalia Andreadis, Lisa Cottrell-Bentley-В ролях: Синди Баэр, Моика Кэрин, Вэйчтер Нироаки, Аикава Боб, Лигински мл., Дрэйк Шеннон, Джаап Дейкстра, Jaap Dijkstra, Дэвид Жак, Борис Гришкевич-Описание: 24 июля 2010 года тысячи людей со всего света прислали видеоклипы о своей жизни на YouTube. Они стали участниками проекта «Жизнь за один день» — исторического эксперимента по созданию документального фильма об одном дне из жизни планеты.-Доп. информация: нет- -Релиз группы: -Качество: DVD5 R5
Формат: DVD-Video
Видео кодек: MPEG2
Аудио кодек: AC3
Видео: PAL 16:9 (720x576(0.501)) MPEG Video, 25,000 кадр/сек, 5197 Кбит/сек
Аудио #1: English (Dolby AC3, 6 ch) 448 Кбит/сек, 48,0 КГц
Аудио #2: English (Dolby AC3, 2 ch) 224 Кбит/сек, 48,0 КГц--

DVDInfo

Title: Рабочий
Size: 4.37 Gb ( 4 585 104 KBytes ) - DVD-5
Enabled regions: 1, 2, 3, 4, 5, 6, 7, 8
VTS_01 :
Play Length: 00:00:10
Video: PAL 16:9 (720x576) VBR, Auto Letterboxed
VTS_02 :
Play Length: 01:31:06
Video: PAL 16:9 (720x576) VBR, Auto Letterboxed
Audio:
Not specified (Dolby AC3, 6 ch)
Not specified (Dolby AC3, 2 ch)
Subtitles:
Russian
Ukrainian

MediaInfo

Общее
Полное имя : G:\Новинки 2011\Zhizn'.za.odin.den'.2011.DVD5\VIDEO_TS\VTS_02_1.VOB
Формат : MPEG-PS
Размер файла : 1024 Мбайт
Продолжительность : 23 м.
Общий поток : 5988 Кбит/сек
Видео
Идентификатор : 224 (0xE0)
Формат : MPEG Video
Версия формата : Version 2
Профиль формата : Main@Main
Параметр BVOP формата : Да
Параметр матрицы формата : Выборочная
Продолжительность : 23 м.
Вид битрейта : Переменный
Битрейт : 5197 Кбит/сек
Максимальный битрейт : 8500 Кбит/сек
Ширина : 720 пикселей
Высота : 576 пикселей
Соотношение сторон : 16:9
Частота кадров : 25,000 кадров/сек
Стандарт вещания : PAL
Цветовое пространство : YUV
Субдискретизация насыщенности : 4:2:0
Битовая глубина : 8 бит
Тип развёртки : Чересстрочная
Порядок развёртки : Верхнее поле первое
Метод сжатия : С потерями
Бит/(Пиксели*Кадры) : 0.501
Размер потока : 889 Мбайт (87%)
Аудио #1
Идентификатор : 189 (0xBD)-128 (0x80)
Формат : AC-3
Формат/Информация : Audio Coding 3
Расширение режима : CM (complete main)
Режим смешивания : DVD-Video
Продолжительность : 23 м.
Вид битрейта : Постоянный
Битрейт : 448 Кбит/сек
Каналы : 6 каналов
Расположение каналов : Front: L C R, Side: L R, LFE
Частота : 48,0 КГц
Битовая глубина : 16 бит
Метод сжатия : С потерями
Размер потока : 76,6 Мбайт (7%)
Аудио #2
Идентификатор : 189 (0xBD)-129 (0x81)
Формат : AC-3
Формат/Информация : Audio Coding 3
Расширение режима : CM (complete main)
Режим смешивания : DVD-Video
Продолжительность : 23 м.
Вид битрейта : Постоянный
Битрейт : 224 Кбит/сек
Каналы : 2 канала
Расположение каналов : Front: L R
Частота : 48,0 КГц
Битовая глубина : 16 бит
Метод сжатия : С потерями
Размер потока : 38,3 Мбайт (4%)

Сканы обложки и диска

Скриншоты меню

Скриншоты фильма

[teatrix.ru].t4639.torrent 
Торрент: Зарегистрирован [ 2015-10-08 00:27 ] · 8CF193954993E95D5C7EC0BAC53E8ED53D039684

Скачать .torrent

Скачать

23 KB

Статус: проверено
Скачан: 0 раз
Размер: 4.37 GB
terms.php



Быстрый ответ

Имя:

      
Для отправки сообщений необходимо включить JavaScript
Показать сообщения:    

Текущее время: 07-Дек 15:34

Часовой пояс: UTC + 3


Вы можете начинать темы
Вы можете отвечать на сообщения
Вы не можете редактировать свои сообщения
Вы не можете удалять свои сообщения
Вы не можете голосовать в опросах
Вы не можете прикреплять файлы к сообщениям
Вы можете скачивать файлы