Невидимая стена / The Invisible Frame (Синтия Битт / Cynthia Beatt) [2009, документальный, DVDRip] Original + Sub (Rus)


Статистика раздачи [Обновить пиров]
Размер:  747 MB   |    Зарегистрирован:  1 год 2 месяца   |    Скачан:  0 раз

Полного источника не было: Никогда

 
   
 
 
 

[Цитировать]

Невидимая стена / The Invisible FrameГод выпуска: 2009
Страна: Германия
Жанр: документальный
Продолжительность: 00:58:36
Перевод: Субтитры
Cубтитры: русские (Екатерина Петровская)
Режиссер: Синтия Битт / Cynthia Beatt
Сценарий: Синтия Битт / Cynthia Beatt
Продюсер: Inge Classen, Frieder Schlaich
Оператор: Ут Фройнд / Ute Freund
Композитор: Саймон Фишер-Тернер / Simon Fisher-Turner
В ролях: Тильда Суинтон (The Cyclist)-Описание: В 1988 году Синтия Битт и Тильда Свинтон проехали на велосипеде вдоль Берлинской Стены, чтобы снять на камеру увиденное в пути, встречи с западными берлинцами и взглянуть по другую сторону стены на восточный Берлин. Через 21 год они вновь проехали вдоль линии стены, проходившей через Берлин. Демонтированная преграда все равно существуют в умах людей. Снесенная в Берлине стена по-прежнему разделает его западную и восточную части...-Рейтинг
IMDB: 5.10 (46)-Качество: DVDRip
Формат: AVI
Видео: XviD; 656x416 (1.577); 1549 Kbps; 25 fps; 0,227 bpp
Аудио: AC3; 224 Kbps; CBR; 2 ch; 48.0 KHz-

MI

Format : AVI
Format/Info : Audio Video Interleave
File size : 747 MiB
Duration : 58mn 36s
Overall bit rate : 1 783 Kbps
Writing application : VirtualDubMod 1.5.10.3 | www.virtualdub-fr.org || (build 2550/release)
Writing library : VirtualDubMod build 2550/release
Video
ID : 0
Format : MPEG-4 Visual
Format profile : Advanced Simple@L5
Format settings, BVOP : 1
Format settings, QPel : No
Format settings, GMC : No warppoints
Format settings, Matrix : Default (MPEG)
Codec ID : XVID
Codec ID/Hint : XviD
Duration : 58mn 36s
Bit rate : 1 549 Kbps
Width : 656 pixels
Height : 416 pixels
Display aspect ratio : 1.577
Frame rate : 25.000 fps
Color space : YUV
Chroma subsampling : 4:2:0
Bit depth : 8 bits
Scan type : Progressive
Compression mode : Lossy
Bits/(Pixel*Frame) : 0.227
Stream size : 649 MiB (87%)
Writing library : XviD 1.2.1 (UTC 2008-12-04)
Audio
ID : 1
Format : AC-3
Format/Info : Audio Coding 3
Mode extension : CM (complete main)
Codec ID : 2000
Duration : 58mn 36s
Bit rate mode : Constant
Bit rate : 224 Kbps
Channel(s) : 2 channels
Channel positions : Front: L R
Sampling rate : 48.0 KHz
Bit depth : 16 bits
Compression mode : Lossy
Stream size : 93.9 MiB (13%)
Alignment : Split accross interleaves
Interleave, duration : 40 ms (1.00 video frame)
Interleave, preload duration : 500 ms

Скриншоты






[teatrix.ru].t4643.torrent 
Торрент: Зарегистрирован [ 2015-10-08 00:27 ] · 0D5EA895648E3D7254C4FA72D164E912394CA85A

Скачать .torrent

Скачать

15 KB

Статус: проверено
Скачан: 0 раз
Размер: 747 MB
terms.php



Быстрый ответ

Имя:

      
Для отправки сообщений необходимо включить JavaScript
Показать сообщения:    

Текущее время: 10-Дек 04:06

Часовой пояс: UTC + 3


Вы можете начинать темы
Вы можете отвечать на сообщения
Вы не можете редактировать свои сообщения
Вы не можете удалять свои сообщения
Вы не можете голосовать в опросах
Вы не можете прикреплять файлы к сообщениям
Вы можете скачивать файлы