Потерянные дети Будды / Buddha's Lost Children (Марк Веркерк / Mark Verkerk) [2006, Нидерланды, Документальный, DVDRip-AVC] VO (cybervlad) + Sub Eng


Статистика раздачи [Обновить пиров]
Размер:  1.53 GB   |    Зарегистрирован:  1 год 1 месяц   |    Скачан:  0 раз

Полного источника не было: Никогда

 
   
 
 
 

[Цитировать]

Потерянные дети Будды / Buddha's Lost Children
Страна: Нидерланды-Франция-Таиланд
Жанр: Документальный
Год выпуска: 2006
Продолжительность: 01:37:42
Перевод: Одноголосый закадровый
Cубтитры: английские (вшитые)
Режиссер: Марк Веркерк / Mark Verkerk
В ролях: Пра Кру Ба Ныа Чай Коситто (Phra Khru Bah Neua Chai Kositto), Кхун Маэ Еад (Khun Mae Ead), монахи и послушники Монастыря Золотой Лошади.Описание: Золотой Треугольник находится на стыке трех границ: Бирмы, Таиланда и Лаоса. Этот регион долгие годы имел печальную славу центра производства и торговли опиумом, и ситуацию в нем контролировали не правительства, а наркобароны. Благодаря усилиям властей и международных организаций ситуация постепенно нормализуется, но многолетнее засилье опиума привело к тому, что обитающие здесь горные народности оказались в нищете и изоляции. Именно здесь, в Золотом Треугольнике, находится Монастырь Золотой Лошади - резиденция одного из последних странствующих монахов, Его Святейшества Кру Ба Ныа Чай Коситто. Последние 15 лет Кру Ба посвящает себя заботе о местных жителях, и в особенности об осиротевших и брошенных детях. Снимавшийся в течение года фильм Марка Веркерка рассказывает о трудной и опасной работе Кру Ба в этом до сих пор неспокойном регионе. //CybervladДоп. информация:
Рип делался с "фестивального" диска, на котором, к сожалению, неотключаемые английские субтитры.
Официальный сайт
IMDB
Награды
Winner Grand Jury Prize AFI, Los Angeles, 2006
Winner Jury Prize, Newport Beach, 2007
Winner Global Insight, Jackson Hole, 2007
Winner City of Rome Prize, 2006
Winner Silver Dove DOK, Leipzig, 2006
Winner Crystal Film, Netherlands Film Fest, 2006
Winner David l. Wolper Best Doc, Wine Country Film Fest, 2007
Winner Best Spiritual Film, European Spiritual Film Fest, Paris 2009
Winner Best Spiritual Documentary, European Spiritual Film Fest, Paris 2009
Сэмпл: http://multi-up.com/581965
Качество видео: DVDRip-AVC
Формат видео: MKV
Видео: V_MPEG4/ISO/AVC 716x480@848x480 (AR 16:9) 23.976 fps ~2048 kbps 0.249 bit/pixel
Аудио: A_AC3 48000 Hz 192 kbps Front: L R Russian
Формат субтитров: hardsub (неотключаемые)

исходник - DVD

General
Complete name : VIDEO_TS/VTS_02_1.VOB
Format : MPEG-PS
File size : 1 024 MiB
Duration : 20mn 26s
Overall bit rate : 7 001 Kbps
Video
ID : 224 (0xE0)
Format : MPEG Video
Format version : Version 2
Format profile : Main@Main
Format settings, BVOP : Yes
Format settings, Matrix : Default
Format settings, GOP : M=3, N=12
Duration : 20mn 26s
Bit rate mode : Variable
Bit rate : 6 670 Kbps
Nominal bit rate : 8 000 Kbps
Width : 720 pixels
Height : 480 pixels
Display aspect ratio : 16:9
Frame rate : 23.976 fps
Standard : NTSC
Color space : YUV
Chroma subsampling : 4:2:0
Bit depth : 8 bits
Scan type : Progressive
Scan order : 2:3 Pulldown
Compression mode : Lossy
Bits/(Pixel*Frame) : 0.805
Stream size : 975 MiB (95%)
Audio
ID : 128 (0x80)
Format : AC-3
Format/Info : Audio Coding 3
Mode extension : CM (complete main)
Duration : 20mn 26s
Bit rate mode : Constant
Bit rate : 192 Kbps
Channel(s) : 2 channels
Channel positions : Front: L R
Sampling rate : 48.0 KHz
Bit depth : 16 bits
Compression mode : Lossy
Stream size : 28.1 MiB (3%)
Menu

MediaInfo

General
Complete name : Buddha_Lost_Children_ac3_cybervlad.mkv
Format : Matroska
Format version : Version 2
File size : 1.53 GiB
Duration : 1h 37mn
Overall bit rate : 2 241 Kbps
Encoded date : UTC 2011-10-23 12:30:20
Writing application : mkvmerge v5.0.1 ('Es ist Sommer') built on Oct 9 2011 11:55:43
Writing library : libebml v1.2.2 + libmatroska v1.3.0
Video
ID : 1
Format : AVC
Format/Info : Advanced Video Codec
Format profile : High@L3.0
Format settings, CABAC : Yes
Format settings, ReFrames : 4 frames
Codec ID : V_MPEG4/ISO/AVC
Duration : 1h 37mn
Bit rate : 2 048 Kbps
Width : 716 pixels
Height : 480 pixels
Display aspect ratio : 16:9
Original display aspect ratio : 16:9
Frame rate mode : Variable
Frame rate : 23.976 fps
Color space : YUV
Chroma subsampling : 4:2:0
Bit depth : 8 bits
Scan type : Progressive
Bits/(Pixel*Frame) : 0.249
Stream size : 1.37 GiB (89%)
Title : video
Writing library : x264 core 112
Encoding settings : cabac=1 / ref=3 / deblock=1:0:0 / analyse=0x3:0x113 / me=umh / subme=9 / psy=1 / psy_rd=1.00:0.00 / mixed_ref=1 / me_range=16 / chroma_me=1 / trellis=1 / 8x8dct=1 / cqm=0 / deadzone=21,11 / fast_pskip=1 / chroma_qp_offset=-2 / threads=6 / sliced_threads=0 / nr=0 / decimate=1 / interlaced=0 / constrained_intra=0 / bframes=3 / b_pyramid=2 / b_adapt=2 / b_bias=0 / direct=1 / weightb=1 / open_gop=0 / weightp=2 / keyint=240 / keyint_min=23 / scenecut=40 / intra_refresh=0 / rc_lookahead=50 / rc=2pass / mbtree=1 / bitrate=2048 / ratetol=1.0 / qcomp=0.60 / qpmin=3 / qpmax=51 / qpstep=4 / cplxblur=20.0 / qblur=0.5 / ip_ratio=1.40 / aq=1:1.00
Language : Russian
Color primaries : BT.601-6 525, BT.1358 525, BT.1700 NTSC, SMPTE 170M
Transfer characteristics : BT.709-5, BT.1361
Matrix coefficients : BT.601-6 525, BT.1358 525, BT.1700 NTSC, SMPTE 170M
Audio
ID : 2
Format : AC-3
Format/Info : Audio Coding 3
Mode extension : CM (complete main)
Codec ID : A_AC3
Duration : 1h 37mn
Bit rate mode : Constant
Bit rate : 192 Kbps
Channel(s) : 2 channels
Channel positions : Front: L R
Sampling rate : 48.0 KHz
Bit depth : 16 bits
Compression mode : Lossy
Stream size : 134 MiB (9%)
Title : audio
Language : Russian
Menu
00:00:00.000 : en:Chapter 1
00:08:57.537 : en:Chapter 2
00:14:21.360 : en:Chapter 3
00:20:48.747 : en:Chapter 4
00:28:33.211 : en:Chapter 5
00:32:56.975 : en:Chapter 6
00:40:26.424 : en:Chapter 7
00:51:00.557 : en:Chapter 8
00:57:23.940 : en:Chapter 9
01:05:33.930 : en:Chapter 10
01:15:35.030 : en:Chapter 11
01:18:05.180 : en:Chapter 12
01:30:07.402 : en:Chapter 13
01:34:29.664 : en:Chapter 14
01:35:50.745 : en:Chapter 15
01:37:22.837 : en:Chapter 16
01:37:40.354 : en:Chapter 17

Скриншот c названием фильма

[teatrix.ru].t4647.torrent 
Торрент: Зарегистрирован [ 2015-10-08 00:27 ] · 13C19766856F5C6EE8599638D22C68AC9F03B39B

Скачать .torrent

Скачать

31 KB

Статус: проверено
Скачан: 0 раз
Размер: 1.53 GB
terms.php



Быстрый ответ

Имя:

      
Для отправки сообщений необходимо включить JavaScript
Показать сообщения:    

Текущее время: 07-Дек 19:22

Часовой пояс: UTC + 3


Вы можете начинать темы
Вы можете отвечать на сообщения
Вы не можете редактировать свои сообщения
Вы не можете удалять свои сообщения
Вы не можете голосовать в опросах
Вы не можете прикреплять файлы к сообщениям
Вы можете скачивать файлы