Пина: Танец страсти / Pina (Вим Вендерс / Wim Wenders) [2011, Германия, Франция, Великобритания, мюзикл, HDRip] MVO Лицензия Original Rus


 

[Цитировать]

Пина: Танец страсти / Pina
Страна: Германия, Франция, Великобритания
Жанр: мюзикл
Год выпуска: 2011
Продолжительность: 01:43:24-Перевод: Профессиональный (многоголосый закадровый) Лицензия
Cубтитры: нет
Оригинальная аудиодорожка: немецкий-Режиссер: Вим Вендерс
Все раздачи на трекере Пина: Танец страсти
В ролях: Реджина Адвенто, Малу Айродо, Рут Aмаранте, Пина Бауш, Райнер Бер, Андрей Березин, Дамиано Оттавио Биджи, Бенедикт Биллет, Алеш Чучек, Клементайн Дилай
Описание: Документальная лента о скончавшейся летом 2009 года легендарной немецкой танцовщице и хореографе Пине Бауш.-
Качество видео: HDRip
Формат видео: AVI
Видео: XviD, 720x400, 16:9, 23,976 кадра/сек, 1924 Кбит/сек, 0.279 бит/пикс.
Аудио: AC-3, 48,0 КГц, 448 Кбит/сек, 6 каналов (Russian)
Аудио 2: AC-3, 48,0 КГц, 448 Кбит/сек, 6 каналов (Deutsch)-

MediaInfo

Общее
Полное имя : D:\Pina.Tanec.strasti.2011.P.HDRip.ELEKTRI4KA.avi
Формат : AVI
Формат/Информация : Audio Video Interleave
Профиль формата : OpenDML
Размер файла : 2,05 Гбайт
Продолжительность : 1 ч. 43 м.
Общий поток : 2838 Кбит/сек
Название фильма : Pina.Tanec.strasti.2011.P.HDRip
Режиссёр : ELEKTRO-Am
Жанр : Music Video
Программа кодирования : VirtualDubMod 1.5.4.1 (build 2178/release)
Формат оригинала/Имя : Movie
Правообладатель : ELEKTRI4KA
Видео
Идентификатор : 0
Формат : MPEG-4 Visual
Профиль формата : Advanced Simple@L5
Параметр BVOP формата : 2
Параметр QPel формата : Нет
Параметр GMC формата : Без точки перехода
Параметр матрицы формата : Выборочная
Идентификатор кодека : XVID
Идентификатор кодека/Подсказка : XviD
Продолжительность : 1 ч. 43 м.
Битрейт : 1924 Кбит/сек
Ширина : 720 пикселей
Высота : 400 пикселей
Соотношение сторон : 16:9
Частота кадров : 23,976 кадра/сек
Цветовое пространство : YUV
Субдискретизация насыщенности : 4:2:0
Битовая глубина : 8 бит
Тип развёртки : Прогрессивная
Метод сжатия : С потерями
Бит/(Пиксели*Кадры) : 0.279
Размер потока : 1,39 Гбайт (68%)
Библиотека кодирования : XviD 1.2.0.dev47 (UTC 2006-11-01)
Аудио #1
Идентификатор : 1
Формат : AC-3
Формат/Информация : Audio Coding 3
Расширение режима : CM (complete main)
Идентификатор кодека : 2000
Продолжительность : 1 ч. 43 м.
Вид битрейта : Постоянный
Битрейт : 448 Кбит/сек
Каналы : 6 каналов
Расположение каналов : Front: L C R, Side: L R, LFE
Частота : 48,0 КГц
Битовая глубина : 16 бит
Метод сжатия : С потерями
Задержка видео : 14 мс.
Размер потока : 331 Мбайт (16%)
Выравнивание : Разделение по промежуткам
Продолжительность промежутка : 42 мс. (1,00 видеокадр)
Время предзагрузки промежутка : 500 мс.
Аудио #2
Идентификатор : 2
Формат : AC-3
Формат/Информация : Audio Coding 3
Расширение режима : CM (complete main)
Идентификатор кодека : 2000
Продолжительность : 1 ч. 43 м.
Вид битрейта : Постоянный
Битрейт : 448 Кбит/сек
Каналы : 6 каналов
Расположение каналов : Front: L C R, Side: L R, LFE
Частота : 48,0 КГц
Битовая глубина : 16 бит
Метод сжатия : С потерями
Задержка видео : 14 мс.
Размер потока : 331 Мбайт (16%)
Выравнивание : Разделение по промежуткам
Продолжительность промежутка : 42 мс. (1,00 видеокадр)
Время предзагрузки промежутка : 500 мс.

Скриншоты




Показать сообщения:    

Текущее время: 10-Дек 00:23

Часовой пояс: UTC + 3


Вы не можете начинать темы
Вы не можете отвечать на сообщения
Вы не можете редактировать свои сообщения
Вы не можете удалять свои сообщения
Вы не можете голосовать в опросах
Вы не можете прикреплять файлы к сообщениям
Вы не можете скачивать файлы