Тарис, король воды / По поводу Ниццы / Taris, roi de l'eau / À propos de Nice (Жан Виго / Jean Vigo) [720p] [1930, 1931, документальный, короткометражка, BDRip] Orig + Sub (Rus, Eng)


Статистика раздачи [Обновить пиров]
Размер:  2.7 GB   |    Зарегистрирован:  1 год 1 месяц   |    Скачан:  0 раз

Полного источника не было: Никогда

 
   
 
 
 

[Цитировать]

Тарис, король воды / Taris, roi de l'eauГод выпуска: 1931
Страна: Франция
Жанр: документальный, короткометражка
Продолжительность: 00:10:05
Перевод: Субтитры (7ime 7raveller)
Cубтитры: русские, английские
Режиссер: Жан Виго / Jean Vigo
Сценарий: Жан Виго / Jean Vigo
Оператор: Борис Кауфман / Boris Kaufman
В ролях: Jean Taris (играет самого себя)-Мировая премьера: 16 ноября 1962-Описание: Короткометражный документальный фильм о французском пловце Жане Тарисе.-Рейтинг
kinopoisk.ru: 7.106 (69)
imdb.com: 6.80 (555)-Спасибо 7ime 7raveller за субтитры-Качество: BDRip
Исходник: BD-Remux by HDClub
Формат: Matroska
Видеокодек: AVC
Аудиокодек: AC3
Видео: 856x720 (1.189); 9990 Kbps; 23,976 fps
Аудио №1: French; AC3; 192 Kbps; CBR; 1 ch
Аудио №2: English; AC3; 192 Kbps; CBR; 1 ch; Commentary
Субтитры №1: Russian
Субтитры №2: English-

rip VS source




-

MI

General
Unique ID : 229855314841513784034477427919323562513 (0xACEC85FBC59467BBB152B54E0F6A8211)
Complete name : Taris.1931.720p.BluRay.Fre-Skazhutin.mkv
Format : Matroska
Format version : Version 2
File size : 734 MiB
Duration : 10mn 4s
Overall bit rate : 10.2 Mbps
Encoded date : UTC 2011-09-20 03:54:32
Writing application : mkvmerge v4.9.1 ('Ich will') built on Jul 11 2011 23:53:15
Writing library : libebml v1.2.1 + libmatroska v1.1.1
Attachment : Yes / Yes
Video
ID : 1
Format : AVC
Format/Info : Advanced Video Codec
Format profile : High@L4.1
Format settings, CABAC : Yes
Format settings, ReFrames : 12 frames
Codec ID : V_MPEG4/ISO/AVC
Duration : 10mn 4s
Bit rate : 10 000 Kbps
Width : 856 pixels
Height : 720 pixels
Display aspect ratio : 1.189
Frame rate : 23.976 fps
Color space : YUV
Chroma subsampling : 4:2:0
Bit depth : 8 bits
Scan type : Progressive
Bits/(Pixel*Frame) : 0.677
Stream size : 706 MiB (96%)
Writing library : x264 core 116 r2074kMod 2641b9e
Encoding settings : cabac=1 / ref=12 / deblock=1:-3:-3 / analyse=0x3:0x133 / me=tesa / subme=11 / psy=1 / fade_compensate=0.00 / psy_rd=1.00:0.00 / mixed_ref=1 / me_range=32 / chroma_me=1 / trellis=2 / 8x8dct=1 / cqm=0 / deadzone=21,11 / fast_pskip=0 / chroma_qp_offset=-2 / threads=12 / sliced_threads=0 / nr=0 / decimate=0 / interlaced=0 / bluray_compat=0 / constrained_intra=0 / bframes=13 / b_pyramid=2 / b_adapt=2 / b_bias=0 / direct=3 / weightb=1 / open_gop=0 / weightp=2 / keyint=250 / keyint_min=23 / scenecut=40 / intra_refresh=0 / rc_lookahead=60 / rc=2pass / mbtree=0 / bitrate=10000 / ratetol=1.0 / qcomp=0.60 / qpmin=0 / qpmax=69 / qpstep=4 / cplxblur=20.0 / qblur=0.5 / vbv_maxrate=50000 / vbv_bufsize=62500 / nal_hrd=none / ip_ratio=1.40 / pb_ratio=1.30 / aq=3:1.00
Language : French
Matrix coefficients : BT.709-5, BT.1361, IEC 61966-2-4 709, SMPTE RP177
Audio
ID : 2
Format : AC-3
Format/Info : Audio Coding 3
Mode extension : CM (complete main)
Codec ID : A_AC3
Duration : 10mn 4s
Bit rate mode : Constant
Bit rate : 192 Kbps
Channel(s) : 1 channel
Channel positions : Front: C
Sampling rate : 48.0 KHz
Bit depth : 16 bits
Compression mode : Lossy
Stream size : 13.8 MiB (2%)
Language : French
Text #1
ID : 3
Format : UTF-8
Codec ID : S_TEXT/UTF8
Codec ID/Info : UTF-8 Plain Text
Language : Russian
Text #2
ID : 4
Format : UTF-8
Codec ID : S_TEXT/UTF8
Codec ID/Info : UTF-8 Plain Text
Language : English

-
x264 logКод:y4m [info]: 856x720p 1:1 @ 24000/1001 fps (cfr)
x264 [info]: using SAR=1/1
x264 [info]: using cpu capabilities: MMX2 SSE2Fast SSSE3 FastShuffle SSE4.2 AVX
x264 [info]: profile High, level 4.1
x264 [info]: frame I:60 Avg QP:18.25 size: 85146
x264 [info]: frame P:2963 Avg QP:21.13 size: 55120
x264 [info]: frame B:11474 Avg QP:22.17 size: 51129
x264 [info]: consecutive B-frames: 1.6% 0.7% 2.9% 29.6% 14.2% 36.5% 2.8% 3.1% 1.4% 1.4% 1.4% 3.3% 0.7% 0.3%
x264 [info]: mb I I16..4: 4.4% 88.5% 7.1%
x264 [info]: mb P I16..4: 0.2% 49.6% 1.9% P16..4: 12.9% 21.3% 7.6% 1.5% 0.0% skip: 5.0%
x264 [info]: mb B I16..4: 0.0% 32.4% 0.7% B16..8: 25.7% 23.0% 8.7% direct: 6.2% skip: 3.1% L0:51.5% L1:44.1% BI: 4.4%
x264 [info]: 8x8 transform intra:97.1% inter:69.5%
x264 [info]: direct mvs spatial:97.4% temporal:2.6%
x264 [info]: coded y,uvDC,uvAC intra: 99.0% 0.1% 0.1% inter: 73.5% 0.2% 0.2%
x264 [info]: i16 v,h,dc,p: 44% 13% 5% 38%
x264 [info]: i8 v,h,dc,ddl,ddr,vr,hd,vl,hu: 7% 8% 9% 12% 14% 12% 13% 12% 14%
x264 [info]: i4 v,h,dc,ddl,ddr,vr,hd,vl,hu: 5% 6% 4% 10% 17% 14% 16% 12% 16%
x264 [info]: i8c dc,h,v,p: 99% 1% 0% 0%
x264 [info]: Weighted P-Frames: Y:16.8% UV:0.0%
x264 [info]: ref P L0: 33.8% 1.7% 17.5% 9.9% 8.2% 7.2% 6.4% 3.9% 3.5% 3.0% 2.5% 2.0% 0.4% 0.0%
x264 [info]: ref B L0: 45.8% 16.1% 11.2% 6.7% 5.5% 4.6% 3.9% 2.5% 2.1% 1.1% 0.4%
x264 [info]: ref B L1: 85.2% 14.8%
x264 [info]: kb/s:9990.39
encoded 14497 frames, 1.24 fps, 9990.40 kb/s
x264 [info]: ended at Tue Sep 20 04:24:41 2011
x264 [info]: encoding duration 6:35:05

-
-По поводу Ниццы / À propos de NiceГод выпуска: 1930
Страна: Франция
Жанр: документальный, короткометражка
Продолжительность: 00:23:45
Перевод: Не требуется
Cубтитры: нет
Навигация по главам: есть
Режиссер: Жан Виго / Jean Vigo
Сценарий: Жан Виго / Jean Vigo
Оператор: Борис Кауфман / Boris Kaufman
-
Мировая премьера: 28 мая 1930-Описание: Как лучше всего дать краткое описание фильма? Среди бумаг Виго сохранилось некое подобие пресс-релиза. «Жан Виго и Борис Кауфман только что закончили фильм «По поводу Ниццы». Голубое небо, белые дома, ослепительное море, солнце, цветы всевозможных оттенков, сердце, полное счастья: вот, на первый взгляд, атмосфера Ниццы. Но это только видимость города наслаждений, видимость эфемерная, мимолетная и проникнутая смертью. Помимо этого «приземленного» аспекта, молодые авторы «По поводу Ниццы» попытались показать эволюцию города». Этот пресс-релиз раскрывает совсем немного из намерений Виго. Позднее, когда он будет стремится привнести в «Ниццу» немного чрезмерные идеологические амбиции, он более точно определит идеи фильма.-Рейтинг
kinopoisk.ru: 8.350 (126)
imdb.com: 7.40 (1 005)-Качество: BDRip
Исходник: Blu-ray by HDClub
Формат: Matroska
Видеокодек: AVC
Аудиокодек: AC3
Видео: 960x720 (4:3); 10970 Kbps; 23,976 fps
Аудио №1: French; AC3; 192 Kbps; CBR; 1 ch
Аудио №2: English; AC3; 192 Kbps; CBR; 1 ch; Commentary
Аудио №3: French; FLAC; Kbps; VBR; 1 ch (отдельно)-

rip VS source




-

MI

General
Unique ID : 176171804481880528484755625208784752186 (0x8489749287262970894E1A8BB4020E3A)
Complete name : A.propos.de.Nice.1930.720p.BluRay.Fre-Skazhutin.mkv
Format : Matroska
Format version : Version 2
File size : 1.88 GiB
Duration : 23mn 45s
Overall bit rate : 11.4 Mbps
Encoded date : UTC 2011-09-20 09:36:39
Writing application : mkvmerge v4.9.1 ('Ich will') built on Jul 11 2011 23:53:15
Writing library : libebml v1.2.1 + libmatroska v1.1.1
Attachment : Yes / Yes
Video
ID : 1
Format : AVC
Format/Info : Advanced Video Codec
Format profile : High@L4.1
Format settings, CABAC : Yes
Format settings, ReFrames : 11 frames
Codec ID : V_MPEG4/ISO/AVC
Duration : 23mn 45s
Bit rate : 10.7 Mbps
Width : 960 pixels
Height : 720 pixels
Display aspect ratio : 4:3
Frame rate : 23.976 fps
Color space : YUV
Chroma subsampling : 4:2:0
Bit depth : 8 bits
Scan type : Progressive
Bits/(Pixel*Frame) : 0.649
Stream size : 1.78 GiB (95%)
Writing library : x264 core 116 r2074kMod 2641b9e
Encoding settings : cabac=1 / ref=11 / deblock=1:-3:-3 / analyse=0x3:0x113 / me=umh / subme=11 / psy=1 / fade_compensate=0.00 / psy_rd=1.10:0.00 / mixed_ref=1 / me_range=24 / chroma_me=1 / trellis=2 / 8x8dct=1 / cqm=0 / deadzone=21,11 / fast_pskip=0 / chroma_qp_offset=-2 / threads=12 / sliced_threads=0 / nr=0 / decimate=1 / interlaced=0 / bluray_compat=0 / constrained_intra=0 / bframes=13 / b_pyramid=2 / b_adapt=2 / b_bias=0 / direct=3 / weightb=1 / open_gop=0 / weightp=2 / keyint=250 / keyint_min=23 / scenecut=40 / intra_refresh=0 / rc_lookahead=60 / rc=crf / mbtree=0 / crf=18.0000 / qcomp=0.60 / qpmin=0 / qpmax=69 / qpstep=4 / vbv_maxrate=50000 / vbv_bufsize=62500 / crf_max=0.0 / nal_hrd=none / ip_ratio=1.40 / pb_ratio=1.30 / aq=1:0.90
Language : French
Matrix coefficients : BT.709-5, BT.1361, IEC 61966-2-4 709, SMPTE RP177
Audio #1
ID : 2
Format : AC-3
Format/Info : Audio Coding 3
Mode extension : CM (complete main)
Codec ID : A_AC3
Duration : 23mn 45s
Bit rate mode : Constant
Bit rate : 192 Kbps
Channel(s) : 1 channel
Channel positions : Front: C
Sampling rate : 48.0 KHz
Bit depth : 16 bits
Compression mode : Lossy
Stream size : 32.6 MiB (2%)
Language : French
Audio #2
ID : 3
Format : AC-3
Format/Info : Audio Coding 3
Mode extension : CM (complete main)
Codec ID : A_AC3
Duration : 23mn 45s
Bit rate mode : Constant
Bit rate : 192 Kbps
Channel(s) : 1 channel
Channel positions : Front: C
Sampling rate : 48.0 KHz
Bit depth : 16 bits
Compression mode : Lossy
Stream size : 32.6 MiB (2%)
Title : Commentary
Language : English
Menu
00:00:00.000 : en:1. Welcome to Nice
00:05:28.161 : en:2. The idle rich
00:11:37.906 : en:3. Worlds apart
00:14:57.021 : en:4. Doomed

-
x264 logКод:y4m [info]: 960x720p 1:1 @ 24000/1001 fps (cfr)
x264 [info]: using SAR=1/1
x264 [info]: using cpu capabilities: MMX2 SSE2Fast SSSE3 FastShuffle SSE4.2 AVX
x264 [info]: profile High, level 4.1
x264 [info]: frame I:177 Avg QP:19.62 size: 91816
x264 [info]: frame P:6912 Avg QP:20.57 size: 69854
x264 [info]: frame B:27088 Avg QP:22.95 size: 53738
x264 [info]: consecutive B-frames: 1.6% 1.5% 7.2% 18.9% 15.4% 35.8% 5.2% 3.0% 2.2% 2.0% 2.1% 3.3% 1.1% 0.5%
x264 [info]: mb I I16..4: 2.4% 90.2% 7.4%
x264 [info]: mb P I16..4: 0.2% 51.1% 1.7% P16..4: 16.6% 21.2% 6.5% 0.0% 0.0% skip: 2.6%
x264 [info]: mb B I16..4: 0.0% 26.2% 0.3% B16..8: 31.6% 20.4% 5.2% direct:10.9% skip: 5.4% L0:46.3% L1:42.9% BI:10.8%
x264 [info]: 8x8 transform intra:97.8% inter:73.9%
x264 [info]: direct mvs spatial:99.9% temporal:0.1%
x264 [info]: coded y,uvDC,uvAC intra: 99.2% 0.0% 0.0% inter: 72.0% 0.0% 0.0%
x264 [info]: i16 v,h,dc,p: 24% 10% 10% 56%
x264 [info]: i8 v,h,dc,ddl,ddr,vr,hd,vl,hu: 6% 7% 12% 10% 15% 12% 14% 10% 13%
x264 [info]: i4 v,h,dc,ddl,ddr,vr,hd,vl,hu: 6% 5% 4% 9% 18% 16% 17% 11% 14%
x264 [info]: i8c dc,h,v,p: 100% 0% 0% 0%
x264 [info]: Weighted P-Frames: Y:27.7% UV:0.0%
x264 [info]: ref P L0: 35.8% 11.8% 14.4% 9.3% 6.6% 5.5% 4.5% 3.3% 2.8% 2.6% 2.4% 0.9% 0.1%
x264 [info]: ref B L0: 63.5% 13.1% 7.8% 4.3% 3.3% 2.7% 2.3% 1.6% 0.9% 0.4%
x264 [info]: ref B L1: 89.4% 10.6%
x264 [info]: kb/s:10970.45
encoded 34177 frames, 4.10 fps, 10970.45 kb/s
x264 [info]: ended at Tue Sep 20 16:53:03 2011
x264 [info]: encoding duration 2:19:06
[teatrix.ru].t4658.torrent 
Торрент: Зарегистрирован [ 2015-10-08 00:27 ] · 8C6891A8A38A01DA52ED95F6316670FB7878F470

Скачать .torrent

Скачать

28 KB

Статус: проверено
Скачан: 0 раз
Размер: 2.7 GB
terms.php



Быстрый ответ

Имя:

      
Для отправки сообщений необходимо включить JavaScript
Показать сообщения:    

Текущее время: 07-Дек 00:55

Часовой пояс: UTC + 3


Вы можете начинать темы
Вы можете отвечать на сообщения
Вы не можете редактировать свои сообщения
Вы не можете удалять свои сообщения
Вы не можете голосовать в опросах
Вы не можете прикреплять файлы к сообщениям
Вы можете скачивать файлы