Верушка: Жизнь перед камерой / Veruschka - Die Inszenierung (m)eines Körpers (Пол Моррисси / Paul Morrissey, Бернд Бём / Bernd Böhm) [2005, Германия, документальный, DVD9 (Custom)] DVO (Кино без границ) + MVO (Первый канал) + deu + sub rus


Статистика раздачи [Обновить пиров]
Размер:  4.72 GB   |    Зарегистрирован:  1 год 1 месяц   |    Скачан:  0 раз

Полного источника не было: Никогда

 
   
 
 
 

[Цитировать]

Верушка: Жизнь перед камерой
Veruschka - Die Inszenierung (m)eines Körpers / Veruschka: A Life for the Camera- Страна: Германия
Жанр: документальный, биография
Год выпуска: 2005
Продолжительность: 01:11:18
Перевод 1: Профессиональный (двухголосый закадровый) (Кино без границ)
Перевод 2: Профессиональный (многоголосый закадровый) (Первый канал)
Cубтитры: русские
Оригинальная аудиодорожка: немецкий
Режиссер: Пол Моррисси / Paul Morrissey, Бернд Бём / Bernd Böhm
В ролях: Верушка фон Лендорфф / Veruschka von Lehndorff
Описание: (с раздачи EXOT_63) Вера фон Лендорфф, известная под псевдонимом Верушка, стала первой супермоделью, которая завоевала мировую известность. В 20 лет она уже участвует в перформансах Сальвадора Дали, появляется на экране в "Фотоувеличении" Антониони и регулярно сотрудничает с Дианой Фриланд в специальных проектах американского Vogue. Знаменитые фотографы всего мира стоят в очереди, чтобы поставить ее перед своими фотоаппаратами. Она позирует для Ирвинга Пенна, Хельмута Ньютона, Ричарда Аведона, Дэвида Бейли и многих других. Она становится членом элиты мира моды и искусства, общается со столпами постмодернистского искусства. Она появляется на обложках все крупнейших журналов мира. Ее совместная работа с Хольгером Трюльцшем над проектами боди-арта вылилась в потрясающую книгу "Метаморфозы" (Transfigurations). Она работает в разных визуальных искусствах — таких как фотография и видео.

Информация о фильме: http://www.1tv.ru/cinema/fi6959/fd201107280030
Доп. информация: В имеющийся на трекере DVD9 R5 добавлена звуковая дорожка с многоголосым переводом Первого канала (выставлена последней, выбирается кнопкой пульта). Синхронизация звука в Pinnacle Studio Plus 11. Запись со спутника сделана по просьбе SolarOlya. Других изменений в диск не вносилось, диск не сжимался. Меню анимированное озвученное. В качестве бонусов – создатели и исполнители, фотогалерея, рекламные ролики.

Использовался софт:

Pinnacle Studio Plus 11
PgcDemux 1.2.0.5.
MuxMan 1.2.3.
DvdRemakePro 3.6.3.
Сэмпл: http://multi-up.com/533603
Качество видео: DVD9
Формат видео: DVD Video
Видео: PAL 4:3 (720x576) VBR, 25.00fps ~6697kbps avg
Аудио 1: Русский (AC3, 3/2 ch 48000Hz 448 Kbps) - Кино без границ
Аудио 2: Deutsch (AC3, 2/0 ch 48000Hz 192 Kbps)
Аудио 3: Русский (AC3, 2/0 ch 48000Hz 192 Kbps) - Первый канал
Формат субтитров: prerendered (IDX+SUB)

DVDInfo

Title: [apreder]Veruschka_A_Life_for_the_Camera(2005)DVD9
Size: 4.72 Gb ( 4 945 896,00 KBytes ) - DVD-9
Enabled regions: 5
VTS_01 :
Play Length: 01:11:18
Video: PAL 4:3 (720x576) VBR
Audio:
Russian (Dolby AC3, 6 ch)
Deutsch (Dolby AC3, 2 ch)
Russian (Dolby AC3, 2 ch)
Audio #1: AC3, 3/2 (L,C,R,SL,SR)+LFE ch, 448 kbps, Delay 0 mSec
Audio #2: AC3, 2/0 (L,R) ch, 192 kbps, Delay 0 mSec
Audio #3: AC3, 2/0 (L,R) ch, 192 kbps, Delay 0 mSec
Subtitles:
Russian
VTS_02 :
Play Length: 00:01:12
Video: PAL 4:3 (720x576) VBR
Audio:
Russian (Dolby AC3, 2 ch)
English (Dolby AC3, 2 ch)
VTS_03 :
Play Length: 00:01:53
Video: PAL 16:9 (720x576) VBR, Auto Letterboxed
Audio:
English (Dolby AC3, 6 ch)
English (Dolby AC3, 6 ch)
VTS_04 :
Play Length: 00:02:06
Video: PAL 4:3 (720x576) VBR
Audio:
Deutsch (Dolby AC3, 2 ch)
Deutsch (Dolby AC3, 2 ch)
VTS_05 :
Play Length: 00:01:24
Video: PAL 16:9 (720x576) VBR, Auto Letterboxed
Audio:
Korean (Dolby AC3, 2 ch)
Korean (Dolby AC3, 2 ch)
VTS_06 :
Play Length: 00:01:53
Video: PAL 16:9 (720x576) VBR, Auto Letterboxed
Audio:
Francais (Dolby AC3, 2 ch)
Francais (Dolby AC3, 2 ch)
VTS_07 :
Play Length: 00:02:02
Video: PAL 16:9 (720x576) VBR, Auto Letterboxed
Audio:
English (Dolby AC3, 2 ch)
English (Dolby AC3, 2 ch)
VTS_08 :
Play Length: 00:00:15+00:00:20+00:00:34+00:00:50+00:00:33+00:00:47
Video: PAL 4:3 (720x576) VBR
Audio:
Russian (Dolby AC3, 2 ch)
Russian (Dolby AC3, 2 ch)
VTS_09 :
Play Length: 00:00:19
Video: PAL 16:9 (720x576) VBR, Auto Letterboxed
Audio:
Russian (Dolby AC3, 2 ch)
Russian (Dolby AC3, 2 ch)
VTS_10 :
Play Length: 00:00:30
Video: PAL 16:9 (720x576) VBR, Auto Letterboxed
Audio:
Russian (Dolby AC3, 2 ch)
Russian (Dolby AC3, 2 ch)
VTS_11 :
Play Length: 00:00:00
Video: PAL 4:3 (720x576) VBR

MediaInfo

Полное имя : H:\My Torrents\[apreder]Veruschka_A_Life_for_the_Camera(2005)DVD9\VIDEO_TS\VTS_01_1.VOB
Формат : MPEG-PS
Размер файла : 1024 Мбайт
Продолжительность : 18 м.
Общий поток : 7682 Кбит/сек
Видео
Идентификатор : 224 (0xE0)
Формат : MPEG Video
Версия формата : Version 2
Профиль формата : Main@Main
Параметр BVOP формата : Да
Параметр матрицы формата : По умолчанию
Параметры GOP формата : M=3, N=12
Продолжительность : 18 м.
Вид битрейта : Переменный
Битрейт : 6697 Кбит/сек
Номинальный битрейт : 8000 Кбит/сек
Ширина : 720 пикс.
Высота : 576 пикс.
Соотношение сторон : 4:3
Частота кадров : 25,000 кадр/сек
Стандарт вещания : PAL
Цветовое пространство : YUV
Подвыборка цветности : 4:2:0
Битовая глубина : 8 бит
Тип развёртки : Чересстрочная
Порядок развёртки : Верхнее поле первое
Метод сжатия : С потерями
Бит/(Пиксели*Кадры) : 0.646
Размер потока : 893 Мбайт (87%)
Аудио #1
Идентификатор : 189 (0xBD)-128 (0x80)
Формат : AC-3
Формат/Информация : Audio Coding 3
Расширение режима : CM (complete main)
Режим смешивания : DVD-Video
Продолжительность : 18 м.
Вид битрейта : Постоянный
Битрейт : 448 Кбит/сек
Каналы : 6 каналов
Расположение каналов : Front: L C R, Side: L R, LFE
Частота : 48,0 КГц
Битовая глубина : 16 бит
Метод сжатия : С потерями
Размер потока : 59,7 Мбайт (6%)
Аудио #2
Идентификатор : 189 (0xBD)-129 (0x81)
Формат : AC-3
Формат/Информация : Audio Coding 3
Расширение режима : CM (complete main)
Режим смешивания : DVD-Video
Продолжительность : 18 м.
Вид битрейта : Постоянный
Битрейт : 192 Кбит/сек
Каналы : 2 канала
Расположение каналов : Front: L R
Частота : 48,0 КГц
Битовая глубина : 16 бит
Метод сжатия : С потерями
Размер потока : 25,6 Мбайт (2%)
Аудио #3
Идентификатор : 189 (0xBD)-130 (0x82)
Формат : AC-3
Формат/Информация : Audio Coding 3
Расширение режима : CM (complete main)
Режим смешивания : DVD-Video
Продолжительность : 18 м.
Вид битрейта : Постоянный
Битрейт : 192 Кбит/сек
Каналы : 2 канала
Расположение каналов : Front: L R
Частота : 48,0 КГц
Битовая глубина : 16 бит
Метод сжатия : С потерями
Размер потока : 25,6 Мбайт (2%)
Текст
Идентификатор : 189 (0xBD)-32 (0x20)
Формат : RLE
Формат/Информация : Run-length encoding
Режим смешивания : DVD-Video
Продолжительность : 18 м.
Задержка видео : 1 с. 200 мс.

Меню

Скриншот c названием фильма

[teatrix.ru].t4666.torrent 
Торрент: Зарегистрирован [ 2015-10-08 00:27 ] · 400CC48591C1A94D1A15C0656C29214B96013DD2

Скачать .torrent

Скачать

26 KB

Статус: проверено
Скачан: 0 раз
Размер: 4.72 GB
terms.php



Быстрый ответ

Имя:

      
Для отправки сообщений необходимо включить JavaScript
Показать сообщения:    

Текущее время: 07-Дек 23:16

Часовой пояс: UTC + 3


Вы можете начинать темы
Вы можете отвечать на сообщения
Вы не можете редактировать свои сообщения
Вы не можете удалять свои сообщения
Вы не можете голосовать в опросах
Вы не можете прикреплять файлы к сообщениям
Вы можете скачивать файлы