Верушка: Жизнь перед камерой / Veruschka - Die Inszenierung (m)eines Körpers (Пол Моррисси / Paul Morrissey, Бернд Бём / Bernd Böhm) [2005, Германия, документальный, DVDRip] MVO (Первый канал) + DVO (Кино без границ) + original (deu)


Статистика раздачи [Обновить пиров]
Размер:  1.35 GB   |    Зарегистрирован:  1 год 2 месяца   |    Скачан:  0 раз

Полного источника не было: Никогда

 
   
 
 
 

[Цитировать]

Верушка: Жизнь перед камерой
Veruschka - Die Inszenierung (m)eines Körpers / Veruschka: A Life for the Camera- Страна: Германия
Жанр: документальный, биография
Год выпуска: 2005
Продолжительность: 01:11:17
Перевод 1: Профессиональный (многоголосый закадровый) (Первый канал)
Перевод 2: Профессиональный (двухголосый закадровый) (Кино без границ)
Cубтитры: нет
Оригинальная аудиодорожка: немецкий
Режиссер: Пол Моррисси / Paul Morrissey, Бернд Бём / Bernd Böhm
В ролях: Верушка фон Лендорфф / Veruschka von Lehndorff
Описание: Вера фон Лендорфф, известная под псевдонимом Верушка, стала первой супермоделью, которая завоевала мировую известность. В 20 лет она уже участвует в перформансах Сальвадора Дали, появляется на экране в "Фотоувеличении" Антониони и регулярно сотрудничает с Дианой Фриланд в специальных проектах американского Vogue. Знаменитые фотографы всего мира стоят в очереди, чтобы поставить ее перед своими фотоаппаратами. Она позирует для Ирвинга Пенна, Хельмута Ньютона, Ричарда Аведона, Дэвида Бейли и многих других. Она становится членом элиты мира моды и искусства, общается со столпами постмодернистского искусства. Она появляется на обложках все крупнейших журналов мира. Ее совместная работа с Хольгером Трюльцшем над проектами боди-арта вылилась в потрясающую книгу "Метаморфозы" (Transfigurations). Она работает в разных визуальных искусствах — таких как фотография и видео.

Информация о фильме: http://www.1tv.ru/cinema/fi6959/fd201107280030
Доп. информация: На собственный рип R5 добавлена звуковая дорожка с многоголосым переводом Первого канала (выставлена первой). Синхронизация звука в Pinnacle Studio Plus 11. Запись со спутника сделана по просьбе SolarOlya.
Сэмпл: http://multi-up.com/533464
Качество видео: DVDRip
Формат видео: AVI
Видео: XviD 672x544 (1.24:1), 25 fps, ATI YVU12 4:2:0 Planar ~1851 kbps avg, 0.20 bit/pixel
Аудио 1: Русский (48 kHz, AC3 Dolby Digital, 2/0 (L,R) ch, ~192 kbps) – Первый канал
Аудио 2: Русский (48 kHz, AC3 Dolby Digital, 3/2 (L,C,R,l,r) + LFE ch, ~448 kbps) – Кино без границ
Аудио 3: Deutsch (48 kHz, AC3 Dolby Digital, 2/0 (L,R) ch, ~192 kbps)

MediaInfo

Полное имя : H:\My Torrents\[apreder]Veruschka_A_Life_for_the_Camera(2005)DVDRip.avi
Формат : AVI
Формат/Информация : Audio Video Interleave
Размер файла : 1,35 Гбайт
Продолжительность : 1 ч. 11 м.
Общий поток : 2704 Кбит/сек
Программа кодирования : VirtualDubMod 1.5.10.3 | www.virtualdub-fr.org || (build 2550/release)
Библиотека кодирования : VirtualDubMod build 2550/release
Видео
Идентификатор : 0
Формат : MPEG-4 Visual
Профиль формата : Advanced Simple@L5
Параметр BVOP формата : 1
Параметр QPel формата : Нет
Параметр GMC формата : Без точки перехода
Параметр матрицы формата : Default (H.263)
Режим смешивания : Сжатый битовый поток
Идентификатор кодека : XVID
Идентификатор кодека/Подсказка : XviD
Продолжительность : 1 ч. 11 м.
Битрейт : 1853 Кбит/сек
Ширина : 672 пикс.
Высота : 544 пикс.
Соотношение сторон : 5:4
Частота кадров : 25,000 кадр/сек
Цветовое пространство : YUV
Подвыборка цветности : 4:2:0
Битовая глубина : 8 бит
Тип развёртки : Прогрессивная
Метод сжатия : С потерями
Бит/(Пиксели*Кадры) : 0.203
Размер потока : 945 Мбайт (69%)
Библиотека кодирования : XviD 1.2.1 (UTC 2008-12-04)
Аудио #1
Идентификатор : 1
Формат : AC-3
Формат/Информация : Audio Coding 3
Расширение режима : CM (complete main)
Идентификатор кодека : 2000
Продолжительность : 1 ч. 11 м.
Вид битрейта : Постоянный
Битрейт : 192 Кбит/сек
Каналы : 2 канала
Расположение каналов : Front: L R
Частота : 48,0 КГц
Битовая глубина : 16 бит
Метод сжатия : С потерями
Размер потока : 97,9 Мбайт (7%)
Выравнивание : Разделение по промежуткам
Продолжительность промежутка : 40 мс. (1,00 видеокадр)
Время предзагрузки промежутка : 500 ms
Аудио #2
Идентификатор : 2
Формат : AC-3
Формат/Информация : Audio Coding 3
Расширение режима : CM (complete main)
Идентификатор кодека : 2000
Продолжительность : 1 ч. 11 м.
Вид битрейта : Постоянный
Битрейт : 448 Кбит/сек
Каналы : 6 каналов
Расположение каналов : Front: L C R, Side: L R, LFE
Частота : 48,0 КГц
Битовая глубина : 16 бит
Метод сжатия : С потерями
Размер потока : 228 Мбайт (17%)
Выравнивание : Разделение по промежуткам
Продолжительность промежутка : 40 мс. (1,00 видеокадр)
Время предзагрузки промежутка : 500 ms
Аудио #3
Идентификатор : 3
Формат : AC-3
Формат/Информация : Audio Coding 3
Расширение режима : CM (complete main)
Идентификатор кодека : 2000
Продолжительность : 1 ч. 11 м.
Вид битрейта : Постоянный
Битрейт : 192 Кбит/сек
Каналы : 2 канала
Расположение каналов : Front: L R
Частота : 48,0 КГц
Битовая глубина : 16 бит
Метод сжатия : С потерями
Размер потока : 97,9 Мбайт (7%)
Выравнивание : Разделение по промежуткам
Продолжительность промежутка : 40 мс. (1,00 видеокадр)
Время предзагрузки промежутка : 500 ms

Скриншот c названием фильма

[teatrix.ru].t4667.torrent 
Торрент: Зарегистрирован [ 2015-10-08 00:27 ] · 21CDBABB50A5476D97120D9F3F0D7E25D32F516B

Скачать .torrent

Скачать

14 KB

Статус: проверено
Скачан: 0 раз
Размер: 1.35 GB
terms.php



Быстрый ответ

Имя:

      
Для отправки сообщений необходимо включить JavaScript
Показать сообщения:    

Текущее время: 10-Дек 17:45

Часовой пояс: UTC + 3


Вы можете начинать темы
Вы можете отвечать на сообщения
Вы не можете редактировать свои сообщения
Вы не можете удалять свои сообщения
Вы не можете голосовать в опросах
Вы не можете прикреплять файлы к сообщениям
Вы можете скачивать файлы