Номера мечты / Die Träume Neapels (Анна Бучетти / Anna Bucchetti) [2005, Нидерланды, Документальный фильм, TVRip] DVO СВ Дубль


Статистика раздачи [Обновить пиров]
Размер:  1.08 GB   |    Зарегистрирован:  1 год 1 месяц   |    Скачан:  0 раз

Полного источника не было: Никогда

 
   
 
 
 

[Цитировать]

Номера мечты / Die Träume Neapels
Страна: Нидерланды
Жанр: Документальный фильм
Год выпуска: 2005
Продолжительность: 01:14:31
Перевод: Профессиональный (двухголосый закадровый) Доп.инфо о переводе СВ Дубль
Cубтитры: нет
Режиссер: Анна Бучетти / Anna Bucchetti
В ролях: Джузеппе Имбучи, Сальваторе Марра, Анджела Ниоли, Мария Ниоли
Описание: Черно-белая зарисовка из жизни неапольских бедных кварталов, которая показана тут через лотерею — главное развлечение местных жителей. Номера принято выбирать не просто так — в маленьких лотерейных офисах продавцы билетов по нумерологическим книжкам подсказывают, как расшифровать сон или какое событие какому цифровому значению соответствует.
Доп. информация: Авторам этой картины чудесным образом удалось воссоздать атмосферу итальянского неореализма. Колоритные персонажи, откровенные сцены бытовой жизни, философские беседы, профессиональные ракурсы — все это создает то самое магическое ощущение работ Висконти, Феллини и др.
Качество видео: TVRip
Формат видео: AVI
Видео: DX50, 640х480, 3:2, 25,000 кадр/сек, 1872 Кбит/сек
Аудио: MP3, 48,0 КГц, 192 Кбит/сек, 2 канала

MediaInfo

Общее
Формат : AVI
Формат/Информация : Audio Video Interleave
Размер файла : 1,08 Гбайт
Продолжительность : 1 ч. 14 м.
Общий поток : 2074 Кбит/сек
Библиотека кодирования : VirtualDub-MPEG2 build 24586/release
Видео
Идентификатор : 0
Формат : MPEG-4 Visual
Параметр BVOP формата : 1
Параметр QPel формата : Нет
Параметр GMC формата : Без точки перехода
Параметр матрицы формата : Default (H.263)
Режим смешивания : Сжатый битовый поток
Идентификатор кодека : DX50
Идентификатор кодека/Подсказка : DivX 5
Продолжительность : 1 ч. 14 м.
Битрейт : 1872 Кбит/сек
Ширина : 640 пикс.
Высота : 480 пикс.
Соотношение сторон : 3:2
Частота кадров : 25,000 кадр/сек
Цветовое пространство : YUV
Подвыборка цветности : 4:2:0
Битовая глубина : 8 бит
Тип развёртки : Прогрессивная
Метод сжатия : С потерями
Бит/(Пиксели*Кадры) : 0.244
Размер потока : 998 Мбайт (90%)
Библиотека кодирования : DivX 6.8.5 (UTC 2009-08-20)
Аудио
Идентификатор : 1
Формат : MPEG Audio
Версия формата : Version 1
Профиль формата : Layer 3
Режим : Joint stereo
Идентификатор кодека : 55
Идентификатор кодека/Подсказка : MP3
Продолжительность : 1 ч. 14 м.
Вид битрейта : Постоянный
Битрейт : 192 Кбит/сек
Каналы : 2 канала
Частота : 48,0 КГц
Метод сжатия : С потерями
Размер потока : 102 Мбайт (9%)
Выравнивание : Разделение по промежуткам
Продолжительность промежутка : 40 мс. (1,00 видеокадр)
Время предзагрузки промежутка : 500 ms

Скриншоты

[teatrix.ru].t4668.torrent 
Торрент: Зарегистрирован [ 2015-10-08 00:27 ] · C092A6EC4FFEDA924836B52707DF6A875800A1D2

Скачать .torrent

Скачать

11 KB

Статус: проверено
Скачан: 0 раз
Размер: 1.08 GB
terms.php



Быстрый ответ

Имя:

      
Для отправки сообщений необходимо включить JavaScript
Показать сообщения:    

Текущее время: 04-Дек 02:54

Часовой пояс: UTC + 3


Вы можете начинать темы
Вы можете отвечать на сообщения
Вы не можете редактировать свои сообщения
Вы не можете удалять свои сообщения
Вы не можете голосовать в опросах
Вы не можете прикреплять файлы к сообщениям
Вы можете скачивать файлы