Кояанискатси / Koyaanisqatsi: Life Out of Balance (Годфри Реджио / Godfrey Reggio) [1982 г., документальный, музыка, HDTVRip, 720p]


Статистика раздачи [Обновить пиров]
Размер:  3.94 GB   |    Зарегистрирован:  1 год 2 месяца   |    Скачан:  0 раз

Полного источника не было: Никогда

 
   
 
 
 

[Цитировать]

Кояанискатси / Koyaanisqatsi: Life Out of Balance- Год выпуска: 1982
Страна: США
Жанр: документальный, музыка
Слоган: «Until now, you have never really seen the world you live in.»
Режиссер: Годфри Реджио / Godfrey Reggio
Сценарий: Рон Фрике, Михаэль Хёниг, Годфри Реджио
Продюсер: Френсис Форд Коппола, Мэл Лоуренс, Роджер МакНью
Оператор: Рон Фрике
Композитор: Филип Гласс, Михаэль Хёниг
Монтаж: Рон Фрике, Элтон Валпоул
В ролях: Тед Коппел-Описание: Первый фильм из трилогии «Катси», показывающей с различных сторон взаимодействие человека и технологии. Другие две ленты: «Поваккатси» и «Накойкаци».
«Koyaanisqatsi» - с языка индейцев племени хопи - это безумная жизнь, беспорядочная жизнь, жизнь на грани распада, жизнь вне баланса, жизнь, требующая изменений во имя продолжения жизни...-Доп. информация: Исходник взят с -Продолжительность: 01:27:47
Русские субтитры: нет
Качество: HDTVRip
Формат: MKV
Видео кодек: H.264
Аудио кодек: AC3
Видео: MPEG-4 AVC/x264 [High@L4.1] 2 pass, 1280x704p at 23.976 fps, 6049 Kbps, 0.28 b/px*f
Аудио: 48 kHz, AC3, 3/2 (L,C,R,l,r) + LFE ch, 448 kbps-

Знаете ли вы, что...:

• Фильм «Кояанискатси» создавался 6 лет. 3 года ушло на съемки. Остальные три года были потрачены Годфри Реджио и Филипом Глассом на написание музыки к фильму, на монтаж и на подгонку их друг к другу.
• Годфри Реджио изначально хотел пригласить Филипа Гласса в качестве композитора фильма. Он вышел на Гласса через общих знакомых, но композитор заявил: «Я не пишу музыку для фильмов». Однако после долгих уговоров и специального закрытого показа пробного монтажа фильма с использованием музыки Гласса, тот в конце концов согласился написать саундтрек к фильму. Это вылилось в первый коммерческий успех композитора, который в последствии написал музыку для всех последующих фильмов трилогии «Катси».
• Изначально Реджио хотел вставить в титры аутентичный символ, плохо поддающийся трактовке, но потом решил, что никто не поймет и не оценит.
• Филип Гласс условно разделил фильм на 12 примерно равных частей и написал для каждой индивидуальную музыкальную тему. Когда Реджио увидел и услышал конечный результат, он пришел в ужас от подобного прагматизма и заново перемонтировал фильм, чтобы картинка соответствовала звуку.
• Поначалу права на фильм принадлежали кинокомпании Фрэнсиса Форда Копполы «American Zoetrope». Когда компания обанкротилась, права перешли компании «PolyGram». Но и «Полиграм» недолго просуществовала. Сейчас права принадлежат корпорации «MGM».
• В фильме есть одна сцена, изображающая горную цепь. Она была отдана режиссеру кинокомпанией MacGillivray-Freeman Films. Это сцена, оставшаяся после съемок «Сияния» (1980).
MediaInfo:">

Скриншоты MediaInfo:

Общее
Уникальный идентификатор : 238214251033708479154656628821662722001 (0xB336655B4FDBAF8FBF0B66B15C0567D1)
Полное имя : F:Koyaanisqatsi.mkv
Формат : Matroska
Версия формата : Version 2
Размер файла : 3,94 Гбайт
Продолжительность : 1 ч. 27 м.
Общий поток : 6430 Кбит/сек
Дата кодирования : UTC 2011-07-23 17:12:13
Программа кодирования : mkvmerge v4.9.1 (Ich will) сборка от Jul 11 2011 23:53:15
Библиотека кодирования : libebml v1.2.1 + libmatroska v1.1.1
Видео
Идентификатор : 1
Формат : AVC
Формат/Информация : Advanced Video Codec
Профиль формата : High@L4.1
Параметр CABAC формата : Да
Параметр ReFrames формата : 9 кадров
Параметры GOP формата : M=1, N=60
Режим смешивания : Header stripping
Идентификатор кодека : V_MPEG4/ISO/AVC
Продолжительность : 1 ч. 27 м.
Битрейт : 6049 Кбит/сек
Ширина : 1280 пикс.
Высота : 704 пикс.
Соотношение сторон : 16:9
Соотношение сторон в оригинале : 1,850
Частота кадров : 23,976 кадр/сек
Цветовое пространство : YUV
Подвыборка цветности : 4:2:0
Битовая глубина : 8 бит
Тип развёртки : Прогрессивная
Бит/(Пиксели*Кадры) : 0.280
Размер потока : 3,59 Гбайт (91%)
Заголовок : Koyaanisqatsi
Библиотека кодирования : x264 core 115 r1995 c1e60b9
Настройки программы : cabac=1 / ref=9 / deblock=1:-2:-2 / analyse=0x3:0x113 / me=umh / subme=9 / psy=1 / psy_rd=1.00:0.00 / mixed_ref=1 / me_range=32 / chroma_me=1 / trellis=2 / 8x8dct=1 / cqm=0 / deadzone=21,11 / fast_pskip=0 / chroma_qp_offset=-2 / threads=6 / sliced_threads=0 / nr=0 / decimate=0 / interlaced=0 / bluray_compat=0 / constrained_intra=0 / bframes=8 / b_pyramid=2 / b_adapt=2 / b_bias=0 / direct=3 / weightb=1 / open_gop=0 / weightp=2 / keyint=250 / keyint_min=23 / scenecut=40 / intra_refresh=0 / rc=2pass / mbtree=0 / bitrate=6049 / ratetol=1.0 / qcomp=0.60 / qpmin=0 / qpmax=69 / qpstep=4 / cplxblur=20.0 / qblur=0.5 / ip_ratio=1.40 / pb_ratio=1.30 / aq=1:1.00
Аудио
Идентификатор : 2
Формат : AC-3
Формат/Информация : Audio Coding 3
Расширение режима : CM (complete main)
Режим смешивания : Header stripping
Идентификатор кодека : A_AC3
Продолжительность : 1 ч. 27 м.
Вид битрейта : Постоянный
Битрейт : 448 Кбит/сек
Каналы : 6 каналов
Расположение каналов : Front: L C R, Side: L R, LFE
Частота : 48,0 КГц
Битовая глубина : 16 бит
Метод сжатия : С потерями
Размер потока : 281 Мбайт (7%)
[teatrix.ru].t4669.torrent 
Торрент: Зарегистрирован [ 2015-10-08 00:27 ] · 8EE45603485A77AAE8F1A55C7D5A707DACC4B83F

Скачать .torrent

Скачать

20 KB

Статус: проверено
Скачан: 0 раз
Размер: 3.94 GB
terms.php



Быстрый ответ

Имя:

      
Для отправки сообщений необходимо включить JavaScript
Показать сообщения:    

Текущее время: 11-Дек 07:16

Часовой пояс: UTC + 3


Вы можете начинать темы
Вы можете отвечать на сообщения
Вы не можете редактировать свои сообщения
Вы не можете удалять свои сообщения
Вы не можете голосовать в опросах
Вы не можете прикреплять файлы к сообщениям
Вы можете скачивать файлы