Кояанискатси / Koyaanisqatsi (Годфри Реджио / Godfrey Reggio) [1982, документальный, HDTVremux 1080i]


Статистика раздачи [Обновить пиров]
Размер:  9.65 GB   |    Зарегистрирован:  1 год 2 месяца   |    Скачан:  0 раз

Полного источника не было: Никогда

 
   
 
 
 

[Цитировать]

Кояанискатси / Koyaanisqatsi
Год выпуска: 1982
Страна: США
Жанр: документальный
Продолжительность: 01:26:03
Перевод и субтитры: не требуются
Режиссер: Годфри Реджио (Godfrey Reggio)
Оператор: Рон Фрике (Ron Fricke)
Музыка: Филипп Гласс (Philip Glass)
Описание: "Koyaanisqatsi" снимался в течении семи лет. 35 тысяч метров отснятой плёнки. Плюс уникальные кадры, охота за которыми велась по киноархивам. "Koyaanisqatsi" - с языка индейцев племени хоппи - это безумная жизнь, беспорядочная жизнь, жизнь на грани распада, жизнь вне баланса, жизнь, требующая изменений во имя продолжения жизни... Жизнь - это движение. Кино - это движение. Безостановочное движение вызывает панику, кадры обрушиваются лавиной, режиссёр сталкивает, сочленяет, сращивает и терзает на экране органическое и синтетическое, природное и рукотворное - разные типы движения, разные виды жизни. Два года подряд на его монтажном столе лежит целый мир, который нужно собрать заново. Из хаоса сотворить космос или космос обратить в хаос. Приходит момент, когда Реджио понимает: отныне всё зависит от музыки, музыки, которая будет сопровождать полифонию "Koyaanisqatsi". Он выбрал Филиппа Гласса. Творение свершилось.
Особенности релиза: Старая HDTV-версия шедевра, к сожалению очень плохого качества, нереставрированная и с обрезанным кадром до 16:9, 720p-рип с которой уже 4 года присутствует на трекере.
За исходник - спасибо BLUE_LIFE с HDCLUB-а
Качество: HDTV
Формат: MKV
Видео кодек: MPEG2
Аудио кодек: AC3
Видео: MPEG2 1080i, 29.970fps, 15mbps (16:9)
Аудио 1: AC3 5.0 48kHz, 448kbps (c DVD издания)
Аудио 2: AC3 2.0 48kHz, 384kbps (HDTV-трансляция)

Mediainfo

General
Complete name                    : Koyaanisqatsi.1080i.mkv
Format                           : Matroska
File size                        : 9.65 GiB
Duration                         : 1h 26mn
Overall bit rate                 : 16.1 Mbps
Encoded date                     : UTC 2011-07-25 21:38:52
Writing application              : mkvmerge v3.4.0 ('Rapunzel') built on May 15 2010 09:38:20
Writing library                  : libebml v0.8.0 + libmatroska v0.9.0
Video
ID                               : 1
Format                           : MPEG Video
Format version                   : Version 2
Format profile                   : Main@High
Format settings, BVOP            : Yes
Format settings, Matrix          : Default
Codec ID                         : V_MPEG2
Codec ID/Info                    : MPEG 1 or 2 Video
Duration                         : 1h 26mn
Bit rate mode                    : Variable
Bit rate                         : 14.9 Mbps
Nominal bit rate                 : 38.8 Mbps
Width                            : 1 920 pixels
Height                           : 1 080 pixels
Display aspect ratio             : 16:9
Frame rate                       : 59.940 fps
Original frame rate              : 29.970 fps
Standard                         : Component
Color space                      : YUV
Chroma subsampling               : 4:2:0
Bit depth                        : 8 bits
Compression mode                 : Lossy
Bits/(Pixel*Frame)               : 0.120
Stream size                      : 8.96 GiB (93%)
Audio #1
ID                               : 2
Format                           : AC-3
Format/Info                      : Audio Coding 3
Mode extension                   : CM (complete main)
Codec ID                         : A_AC3
Duration                         : 1h 26mn
Bit rate mode                    : Constant
Bit rate                         : 448 Kbps
Channel(s)                       : 5 channels
Channel positions                : Front: L C R, Side: L R
Sampling rate                    : 48.0 KHz
Bit depth                        : 16 bits
Compression mode                 : Lossy
Stream size                      : 276 MiB (3%)
Audio #2
ID                               : 3
Format                           : AC-3
Format/Info                      : Audio Coding 3
Mode extension                   : CM (complete main)
Codec ID                         : A_AC3
Duration                         : 1h 26mn
Bit rate mode                    : Constant
Bit rate                         : 384 Kbps
Channel(s)                       : 2 channels
Channel positions                : Front: L R
Sampling rate                    : 48.0 KHz
Bit depth                        : 16 bits
Compression mode                 : Lossy
Stream size                      : 236 MiB (2%)
Menu
00:00:08.440
00:03:45.020
00:11:40.630
00:16:24.580
00:23:00.850
00:31:05.598
00:39:33.020
00:40:50.468
00:44:09.950
01:05:52.173
01:07:51.230
01:16:43.570
01:20:28.620

Скриншоты

[teatrix.ru].t4670.torrent 
Торрент: Зарегистрирован [ 2015-10-08 00:27 ] · 38A21DFEEF25E93548433F9FF8CE5ED60E508ABA

Скачать .torrent

Скачать

49 KB

Статус: проверено
Скачан: 0 раз
Размер: 9.65 GB
terms.php



Быстрый ответ

Имя:

      
Для отправки сообщений необходимо включить JavaScript
Показать сообщения:    

Текущее время: 09-Дек 22:19

Часовой пояс: UTC + 3


Вы можете начинать темы
Вы можете отвечать на сообщения
Вы не можете редактировать свои сообщения
Вы не можете удалять свои сообщения
Вы не можете голосовать в опросах
Вы не можете прикреплять файлы к сообщениям
Вы можете скачивать файлы