Трепет перед Б-ом / Нарушая Традиции / Trembling Before G-d (Сэнди Дубовски / Sandi Dubowski) [2001, Документальный, Гей-тема, DVDRip] VO


Статистика раздачи [Обновить пиров]
Размер:  733 MB   |    Зарегистрирован:  1 год 2 месяца   |    Скачан:  0 раз

Полного источника не было: Никогда

 
   
 
 
 

[Цитировать]

Трепет перед Б-ом / Нарушая Традиции / Trembling Before G-d
Год выпуска: 2001
Страна: Израиль, США, Франция
Жанр: Документальный, Гей-тема
Продолжительность: 01:24:25
Перевод: Любительский (одноголосый) || Перевод: kvintalina; озвучка: Василий Кошкин.
Русские субтитры: нет
Режиссер: Сэнди Дубовски / Sandi Dubowski
Описание: Гомосексуальность в иудейском ортодоксальном сообществе - очень скрываемая вещь, и именно она становится темой для этого израильского документального фильма, мы сможем увидеть рассказы о своих жизнях нескольких представителей ортодоксальной иудейской общины, которые склонные к гомосексуализму. Также, кроме интервью с ними, в фильме звучат голоса ортодоксальных и хасидских раввинов, а также психотерапевтов, изучающих эту проблему.
Большинство участников фильма, которые согласились давать интервью в камеру - американские евреи, а также британские и израильские. Их лица не показываются - лишь силуэты, ведь эти люди и сейчас еще находятся в религиозной еврейской среде, и раскрытие их внутренней специфики может очень осложнить им жизнь.
Фильм получил множество наград на различных кинофестивалях, в том числе две награды Берлинале.
Сэмпл: http://multi-up.com/512333
Качество: DVDRip
Формат: AVI
Видео кодек: XviD
Аудиокодек: MP3
Видео: XviD, 608x336, 16:9, 25.000 fps, 1013 Kbps
Аудио: MP3, 192 Kbps, 44.1 KHz, 2 channels

MediaInfo

General
Complete name : D:\ВИДЕО\На торрент\Trembling Before G-D 2001 rus.avi
Format : AVI
Format/Info : Audio Video Interleave
File size : 733 MiB
Duration : 1h 24mn
Overall bit rate : 1 215 Kbps
Video
ID : 0
Format : MPEG-4 Visual
Format profile : Advanced Simple@L5
Format settings, BVOP : No
Format settings, QPel : No
Format settings, GMC : No warppoints
Format settings, Matrix : Default (MPEG)
Codec ID : XVID
Codec ID/Hint : XviD
Duration : 1h 24mn
Bit rate : 1 013 Kbps
Width : 608 pixels
Height : 336 pixels
Display aspect ratio : 16:9
Frame rate : 25.000 fps
Color space : YUV
Chroma subsampling : 4:2:0
Bit depth : 8 bits
Scan type : Progressive
Compression mode : Lossy
Bits/(Pixel*Frame) : 0.198
Stream size : 612 MiB (83%)
Writing library : XviD 62
Audio
ID : 1
Format : MPEG Audio
Format version : Version 1
Format profile : Layer 3
Codec ID : 55
Codec ID/Hint : MP3
Duration : 1h 24mn
Bit rate mode : Constant
Bit rate : 192 Kbps
Channel(s) : 2 channels
Sampling rate : 44.1 KHz
Compression mode : Lossy
Stream size : 116 MiB (16%)
Alignment : Split accross interleaves
Interleave, duration : 42 ms (1.04 video frame)
Writing library : LAMELAME_MAJOR_VERSI

Скриншоты



[teatrix.ru].t4680.torrent 
Торрент: Зарегистрирован [ 2015-10-08 00:27 ] · 3981D43E2979312E330EE9F04EE656429660A0A4

Скачать .torrent

Скачать

15 KB

Статус: проверено
Скачан: 0 раз
Размер: 733 MB
terms.php



Быстрый ответ

Имя:

      
Для отправки сообщений необходимо включить JavaScript
Показать сообщения:    

Текущее время: 09-Дек 22:27

Часовой пояс: UTC + 3


Вы можете начинать темы
Вы можете отвечать на сообщения
Вы не можете редактировать свои сообщения
Вы не можете удалять свои сообщения
Вы не можете голосовать в опросах
Вы не можете прикреплять файлы к сообщениям
Вы можете скачивать файлы