История ночи / Силезские врата / Geschichte der Nacht / Das schlesische Tor / The Silesian Gate (Клеменс Клопфенштайн / Clemens Klopfenstein) [1979, 1983 Швейцария, Франция, Западная Германия, документальный, средний метр, DVDRip] Sub rus


Статистика раздачи [Обновить пиров]
Размер:  956 MB   |    Зарегистрирован:  1 год 1 месяц   |    Скачан:  0 раз

Полного источника не было: Никогда

 
   
 
 
 

[Цитировать]

Документальные фильмы Клеменса Клопфенштайна
История ночи / Geschichte der Nacht
Страна: Швейцария, Франция, Западная Германия
Жанр: документальный, средний метр
Год выпуска: 1979
Продолжительность: 01:01:17
Перевод: субтитры
Cубтитры: русские
Режиссер: Клеменс Клопфенштайн / Clemens Klopfenstein
В ролях: в фильме роли не обозначены
Описание: Фильм начинается эпиграфом из «Улисса» Джеймса Джойса, который исчерпывающе описывает атмосферу фильма. Ночью все города одинаковы, как все кошки – серы. Но это совершенно не так.
Камера запечатлевает множество статических кадров ночных городов, городов поздней ночью и перед рассветом, и каждый кадр окрашен своим собственным острым чувством – одиночества, спокойствия, безумия, заброшенности. Иногда чувство есть, но его сложно распознать и истолковать. Иногда в ночной город входят люди и тогда всё меняется. Именно об этих изменениях – тонких, нежных, настойчивых – этот фильм, который Клеменс Клопфенштейн снимает на 16-тимиллиметровую плёнку, сдабривая изображение странной щемящей музыкой. Получается медитативная элегия на тему человека и города, ночи и одиночества, тема, которая уже раскрывалась в некоторых фильмах Шанталь Акерман и Вима Вендерса, но которая в данном случае иначе проявляется в авторском взгляде Клеменса Клопфенштейна. Пост-эпиграф закрепляет послевкусие от фильма, как бы заставляя подумать о нём даже тогда, когда он уже закончился, и продлить элегическое настроение ещё ненадолго.
(Фильм – без диалогов, субтитры относятся к интертитрам пролога и эпилога).
Сэмпл: http://multi-up.com/470981
Качество видео: mp4
Формат видео: MPEG-4
Видео: MPEG-4 Base Media / Version 2 at 1456 kbps 720x560 (1.29:1) at 25 fps
Аудио: AAC at 98,2…130 kbps, 2 ch, 44,1 kHz

MediaInfo

Формат : MPEG-4
Профиль формата : Base Media / Version 2
Идентификатор кодека : mp42
Размер файла : 682 Мбайт
Продолжительность : 1 ч. 1 м.
Общий поток : 1556 Кбит/сек
Видео
Идентификатор : 1
Формат : AVC
Формат/Информация : Advanced Video Codec
Профиль формата : Main@L4.0
Параметр CABAC формата : Да
Параметр ReFrames формата : 1 кадр
Идентификатор кодека : avc1
Идентификатор кодека/Информация : Advanced Video Coding
Продолжительность : 1 ч. 1 м.
Вид битрейта : Переменный
Битрейт : 1456 Кбит/сек
Ширина : 720 пикс.
Высота : 560 пикс.
Соотношение сторон : 1,286
Режим частоты кадров : Постоянный
Частота кадров : 25,000 кадр/сек
Частота кадров в оригинале : 12,500 кадр/сек
Цветовое пространство : YUV
Подвыборка цветности : 4:2:0
Битовая глубина : 8 бит
Тип развёртки : Прогрессивная
Бит/(Пиксели*Кадры) : 0.144
Размер потока : 638 Мбайт (94%)
Библиотека кодирования : x264 core 34
Язык : English
Аудио
Идентификатор : 2
Формат : AAC
Формат/Информация : Advanced Audio Codec
Профиль формата : LC
Идентификатор кодека : 40
Продолжительность : 1 ч. 1 м.
Вид битрейта : Переменный
Битрейт : 98,2 Кбит/сек
Максимальный битрейт : 130 Кбит/сек
Канал(ы) : 2 канала(ов)
Расположение каналов : Front: L R
Частота : 44,1 КГц
Метод сжатия : С потерями
Размер потока : 43,1 Мбайт (6%)
Язык : English
Силезские врата / Das schlesische Tor / The Silesian Gate
Страна: Швейцария
Жанр: документальный, короткий метр
Год выпуска: 1983
Продолжительность: 00:22:39
Перевод: не требуется
Cубтитры: не требуются
Оригинальная аудиодорожка: отсутствует
Режиссер: Клеменс Клопфенштайн / Clemens Klopfenstein
В ролях: в фильме роли не обозначены
Описание: Фильм рождается из нескольких визуальных тем – домашней, городской – музыкальной темы китайских песен. Режиссёр путешествует (фильм снят в Берлине, Токио и Гонконге), и мы путешествуем вместе с ним. А затем возвращаемся домой уже изменившимися.
И в этом фильме Клеменс Клопфенштайн использует 16-тимиллиметровую плёнку, которая придаёт ему свободы в обращении с изображением – крупное зерно, выросшее из пере- или недоэкспозиции только придаёт визуальному некоего шарма; ручная камера немного подрагивает, двигаясь вместе с вагоном метро по элевейтиду.
Мягкий и даже элегический фильм.
Сэмпл: http://multi-up.com/470986
Качество видео: mp4
Формат видео: MPEG-4 Visual
Видео: MPEG-4 Base Media / Version 2 at 1594 kbps 698x576 (1.29:1) at 25 fps
Аудио: AAC at 90,6…121 kbps, 2 ch, 48 kHz

Отчет MediaInfo

Общее
Формат : MPEG-4
Профиль формата : Base Media / Version 2
Идентификатор кодека : mp42
Размер файла : 273 Мбайт
Продолжительность : 22 м.
Общий поток : 1687 Кбит/сек
Дата кодирования : UTC 2008-09-01 16:28:05
Дата пометки : UTC 2008-09-01 17:00:44
Видео
Идентификатор : 1
Формат : MPEG-4 Visual
Профиль формата : Simple@L1
Параметр BVOP формата : Нет
Параметр QPel формата : Нет
Параметр GMC формата : Без точки перехода
Параметр матрицы формата : Default (H.263)
Идентификатор кодека : 20
Продолжительность : 22 м.
Вид битрейта : Переменный
Битрейт : 1594 Кбит/сек
Максимальный битрейт : 2584 Кбит/сек
Ширина : 698 пикс.
Высота : 576 пикс.
Соотношение сторон : 1,293
Режим частоты кадров : Постоянный
Частота кадров : 25,000 кадр/сек
Цветовое пространство : YUV
Подвыборка цветности : 4:2:0
Битовая глубина : 8 бит
Тип развёртки : Прогрессивная
Метод сжатия : С потерями
Бит/(Пиксели*Кадры) : 0.159
Размер потока : 258 Мбайт (94%)
Библиотека кодирования : Lavc51.40.4
Язык : English
Аудио
Идентификатор : 2
Формат : AAC
Формат/Информация : Advanced Audio Codec
Профиль формата : LC
Идентификатор кодека : 40
Продолжительность : 22 м.
Вид битрейта : Переменный
Битрейт : 90,6 Кбит/сек
Максимальный битрейт : 121 Кбит/сек
Канал(ы) : 2 канала(ов)
Расположение каналов : Front: L R
Частота : 48,0 КГц
Метод сжатия : С потерями
Размер потока : 14,7 Мбайт (5%)
Текст
Идентификатор : 3
Формат : Apple text
Идентификатор кодека : text
Продолжительность : 22 м.
Вид битрейта : Постоянный
Битрейт : 1 бит/сек
Размер потока : 240 байт (0%)
Язык : English
Доп. информация: Файлы взяты с KG, за что огромная благодарность palmelan и faustos!

Скриншот c названием фильма

История ночи / Geschichte der Nacht

Силезские врата / Das schlesische Tor / The Silesian Gate

Скриншоты

История ночи / Geschichte der Nacht






Силезские врата / Das schlesische Tor / The Silesian Gate






[teatrix.ru].t4691.torrent 
Торрент: Зарегистрирован [ 2015-10-08 00:27 ] · BE0D9EEE358C4103FB02E657F7B9FAC50F91A9FE

Скачать .torrent

Скачать

19 KB

Статус: проверено
Скачан: 0 раз
Размер: 956 MB
terms.php



Быстрый ответ

Имя:

      
Для отправки сообщений необходимо включить JavaScript
Показать сообщения:    

Текущее время: 03-Дек 01:16

Часовой пояс: UTC + 3


Вы можете начинать темы
Вы можете отвечать на сообщения
Вы не можете редактировать свои сообщения
Вы не можете удалять свои сообщения
Вы не можете голосовать в опросах
Вы не можете прикреплять файлы к сообщениям
Вы можете скачивать файлы