Скейтистан / Skateistan (Орландо фон Айнсидель /Orlando Von Einsiedel) [2011, Афганистан, Короткий метр (Future Shorts), HDRip] Artist8910 Sub rus + original eng


Статистика раздачи [Обновить пиров]
Размер:  113 MB   |    Зарегистрирован:  1 год 2 месяца   |    Скачан:  0 раз

Полного источника не было: Никогда

 
   
 
 
 

[Цитировать]

Скейтистан / Skateistan
Страна: Афганистан
Жанр: Короткий метр (Future Shorts)
Год выпуска: 2011
Продолжительность: 00:09:23
Перевод: Субтитры Доп.инфо о переводе: перевод Artist8910
Cубтитры: русские
Оригинальная аудиодорожка: английский
Режиссер: Орландо фон Айнсидель /Orlando Von Einsiedel
В ролях: Дети Кабула и Скейтистана
Описание: Документальный фильм о зарождении скейтбординга среди руин Кабула. Лента показывает, как стихийные явления могут дать надежду обществу, нуждающемуся в переменах, и служит абсолютным и неопровержимым доказательством универсальности скейт-культуры.
Доп. информация: Данная короткометражка является участником "Future Shorts ONE / March Edition", а также других фестивалей.
Качество видео: HD
Формат видео: MP4
Видео: AVC at 1 552 Kbps, 1280 x 720 (1.778) at 25.000 fps
Аудио: AAC at 128 Kbps, 2 channels, 44.1 KHz
Формат субтитров: softsub (SRT)

MediaInfo

Format : MPEG-4
Format profile : Base Media / Version 2
Codec ID : mp42
File size : 113 MiB
Duration : 9mn 23s
Overall bit rate : 1 684 Kbps
Encoded date : UTC 2011-01-05 20:50:47
Tagged date : UTC 2011-01-05 20:50:47
gsst : 0
gstd : 563640
gssd : BD592AB01HH1298450761161212
gshh : tc.v9.cache6.c.youtube.com
Video
ID : 1
Format : AVC
Format/Info : Advanced Video Codec
Format profile : High@L3.1
Format settings, CABAC : Yes
Format settings, ReFrames : 1 frame
Codec ID : avc1
Codec ID/Info : Advanced Video Coding
Duration : 9mn 23s
Bit rate mode : Variable
Bit rate : 1 552 Kbps
Maximum bit rate : 5 923 Kbps
Width : 1 280 pixels
Height : 720 pixels
Display aspect ratio : 16/9
Frame rate mode : Constant
Frame rate : 25.000 fps
Resolution : 24 bits
Colorimetry : 4:2:0
Scan type : Progressive
Bits/(Pixel*Frame) : 0.067
Stream size : 104 MiB (92%)
Encoded date : UTC 1970-01-01 00:00:00
Tagged date : UTC 2011-01-05 20:50:51
Audio
ID : 2
Format : AAC
Format/Info : Advanced Audio Codec
Format version : Version 4
Format profile : LC
Format settings, SBR : No
Codec ID : 40
Duration : 9mn 23s
Bit rate mode : Variable
Bit rate : 128 Kbps
Maximum bit rate : 216 Kbps
Channel(s) : 2 channels
Channel positions : L R
Sampling rate : 44.1 KHz
Resolution : 16 bits
Stream size : 8.59 MiB (8%)
Title : (C) 2007 Google Inc. v08.13.2007.
Encoded date : UTC 2011-01-05 20:50:50
Tagged date : UTC 2011-01-05 20:50:51

Скриншот c названием фильма

Скриншоты



[teatrix.ru].t4705.torrent 
Торрент: Зарегистрирован [ 2015-10-08 00:27 ] · 8A109013308A7AFAA80B145A35F9FFAA02D7C287

Скачать .torrent

Скачать

18 KB

Статус: проверено
Скачан: 0 раз
Размер: 113 MB
terms.php



Быстрый ответ

Имя:

      
Для отправки сообщений необходимо включить JavaScript
Показать сообщения:    

Текущее время: 08-Дек 14:59

Часовой пояс: UTC + 3


Вы можете начинать темы
Вы можете отвечать на сообщения
Вы не можете редактировать свои сообщения
Вы не можете удалять свои сообщения
Вы не можете голосовать в опросах
Вы не можете прикреплять файлы к сообщениям
Вы можете скачивать файлы